<?xml version="1.0" standalone="no"?>
<!DOCTYPE svg PUBLIC "-//W3C//DTD SVG 1.1//EN" "http://www.w3.org/Graphics/SVG/1.1/DTD/svg11.dtd" >
<svg xmlns="http://www.w3.org/2000/svg" xmlns:xlink="http://www.w3.org/1999/xlink" version="1.1">
<metadata>
Created by FontForge 20170924 at Fri Mar 29 18:15:53 2013
 By www-data
Futura was designed for Bauer company in 1927 by Paul Renner. This is a sans serif face based on geometrical shapes, representative of the aesthetics of the Bauhaus school of the 1920s-30s. Issued by the Bauer Foundry in a wide range of weights and widths, Futura became a very popular choice for text and display setting. Originally Cyrillic version of eight styles was developed at ParaType (ParaGraph) in 1995 by Vladimir Yefimov. Additional Cyrillic styles were developed in 2007-2009 by Isabella Chaeva. Simultaneously the old eight styles were partly revised to match the whole family. Now the new Futura is an uniform type system consisted of seven weights with corresponding obliques plus eight condensed styles. All these fonts are coordinated in letterforms, metrics, and weights to better working together.
</metadata>
<defs>
<font id="FuturaPT-Medium" horiz-adv-x="500" >
  <font-face 
    font-family="Futura PT Medium"
    font-weight="450"
    font-stretch="normal"
    units-per-em="1000"
    panose-1="2 11 6 2 2 2 4 2 3 3"
    ascent="763"
    descent="-237"
    x-height="421"
    cap-height="667"
    bbox="-362 -270 1167 935"
    underline-thickness="50"
    underline-position="-100"
    stemh="92"
    stemv="100"
    unicode-range="U+0020-FB02"
  />
<missing-glyph horiz-adv-x="233" 
 />
    <glyph glyph-name="afii10017.var.accented" unicode="&#x410;`" horiz-adv-x="656" 
d="M542 0l-70 161h-285l-73 -161h-110l332 706l316 -706h-110zM229 257h202l-99 226zM312 727l-48 40l138 139l86 -60z" />
    <glyph glyph-name="afii10022.var.accented" unicode="&#x415;`" 
d="M448 667v-96h-266v-169h258v-96h-258v-210h266v-96h-368v667h368zM234 727l-48 40l138 139l86 -60z" />
    <glyph glyph-name="afii10026.var.accented" unicode="&#x418;`" horiz-adv-x="712" 
d="M530 0v449l-450 -479v697h102v-451l450 479v-695h-102zM340 727l-48 40l138 139l86 -60z" />
    <glyph glyph-name="afii10032.var.accented" unicode="&#x41e;`" horiz-adv-x="790" 
d="M395 679c200 0 347 -150 347 -346s-147 -346 -347 -346s-347 150 -347 346s147 346 347 346zM395 81c143 0 245 104 245 252s-102 252 -245 252s-245 -104 -245 -252s102 -252 245 -252zM379 727l-48 40l138 139l86 -60z" />
    <glyph glyph-name="afii10037.var.accented" unicode="&#x423;`" horiz-adv-x="570" 
d="M6 667h124l172 -356l156 356h106l-301 -667h-106l86 189zM269 727l-48 40l138 139l86 -60z" />
    <glyph glyph-name="afii10045.var.accented" unicode="&#x42b;`" horiz-adv-x="740" 
d="M80 0v667h102v-269h76c48 0 116 -8 167 -53c38 -33 63 -86 63 -147s-27 -125 -83 -162c-48 -32 -105 -36 -146 -36h-179zM182 302v-206h72c27 0 134 0 134 101c0 48 -24 105 -132 105h-74zM558 667h102v-667h-102v667zM354 727l-48 40l138 139l86 -60z" />
    <glyph glyph-name="afii10047.var.accented" unicode="&#x42d;`" horiz-adv-x="622" 
d="M48 511v120c47 27 107 48 193 48c87 0 166 -20 234 -87c83 -82 99 -185 99 -258c0 -107 -34 -191 -99 -256c-68 -68 -149 -91 -237 -91c-87 0 -148 25 -190 50v121c64 -65 143 -77 190 -77c66 0 120 18 162 60c30 30 62 80 68 149h-330v96h328c-6 55 -29 102 -61 135
c-31 32 -82 64 -166 64c-92 0 -155 -42 -191 -74zM239 727l-48 40l138 139l86 -60z" />
    <glyph glyph-name="afii10048.var.accented" unicode="&#x42e;`" horiz-adv-x="1000" 
d="M182 402h100c14 84 54 142 89 178c51 52 130 99 244 99c195 0 337 -149 337 -346c0 -196 -143 -346 -337 -346c-135 0 -217 63 -261 117c-37 46 -70 116 -72 202h-100v-306h-102v667h102v-265zM615 81c138 0 235 105 235 252s-97 252 -235 252s-235 -105 -235 -252
s97 -252 235 -252zM484 727l-48 40l138 139l86 -60z" />
    <glyph glyph-name="afii10049.var.accented" unicode="&#x42f;`" horiz-adv-x="534" 
d="M20 0l198 278c-34 4 -74 20 -103 45c-47 41 -57 93 -57 142s12 97 51 139c58 62 134 63 181 63h164v-667h-102v267h-24l-182 -267h-126zM352 573h-50c-49 0 -87 -5 -114 -31c-18 -17 -32 -44 -32 -77c0 -45 22 -69 38 -80c27 -18 71 -24 102 -24h56v212zM251 727l-48 40
l138 139l86 -60z" />
    <glyph glyph-name="afii10023.var.accented" unicode="&#x401;`" 
d="M448 667v-96h-266v-169h258v-96h-258v-210h266v-96h-368v667h368zM219 738l-33 29l111 139l63 -46zM63 802c0 22 18 55 56 55c32 0 56 -24 56 -55c0 -32 -24 -56 -56 -56c-38 0 -56 33 -56 56zM353 802c0 31 24 55 56 55c38 0 56 -33 56 -55c0 -23 -18 -56 -56 -56
c-32 0 -56 24 -56 56z" />
    <glyph glyph-name="afii10065.var.accented" unicode="&#x430;`" horiz-adv-x="530" 
d="M370 372v49h98v-421h-98v44c-43 -50 -96 -57 -126 -57c-130 0 -204 108 -204 224c0 137 94 221 205 221c31 0 85 -8 125 -60zM257 344c-71 0 -117 -60 -117 -135c0 -73 46 -134 117 -134c62 0 119 45 119 133c0 92 -57 136 -119 136zM340 675l90 -46l-156 -144l-54 34z
" />
    <glyph glyph-name="afii10070.var.accented" unicode="&#x435;`" horiz-adv-x="482" 
d="M357 142l82 -46c-18 -32 -44 -60 -71 -77c-34 -22 -79 -32 -124 -32c-56 0 -102 14 -142 54s-62 98 -62 161c0 65 23 128 67 173c35 35 81 57 141 57c67 0 110 -29 135 -55c54 -56 59 -134 59 -178v-12h-302c2 -30 15 -64 36 -85c23 -23 51 -27 75 -27c27 0 47 6 67 21
c17 13 30 30 39 46zM147 267h195c-4 23 -15 43 -30 57c-13 12 -34 24 -66 24c-34 0 -56 -14 -69 -27c-14 -13 -25 -33 -30 -54zM318 675l90 -46l-156 -144l-54 34z" />
    <glyph glyph-name="afii10074.var.accented" unicode="&#x438;`" horiz-adv-x="510" 
d="M62 421h98v-239l288 277v-459h-98v245l-288 -277v453zM330 675l90 -46l-156 -144l-54 34z" />
    <glyph glyph-name="afii10080.var.accented" unicode="&#x43e;`" horiz-adv-x="530" 
d="M265 432c127 0 225 -92 225 -222c0 -129 -98 -223 -225 -223s-225 94 -225 223c0 130 98 222 225 222zM265 75c77 0 125 53 125 134c0 96 -63 135 -125 135s-125 -39 -125 -135c0 -81 48 -134 125 -134zM340 675l90 -46l-156 -144l-54 34z" />
    <glyph glyph-name="afii10085.var.accented" unicode="&#x443;`" horiz-adv-x="482" 
d="M31 -229l155 295l-180 355h118l120 -246l122 246h110l-335 -650h-110zM316 675l90 -46l-156 -144l-54 34z" />
    <glyph glyph-name="afii10093.var.accented" unicode="&#x44b;`" horiz-adv-x="580" 
d="M62 0v421h98v-149h56c41 0 89 -1 127 -43c28 -31 33 -67 33 -92c0 -49 -19 -82 -38 -101c-37 -36 -81 -36 -123 -36h-153zM160 84h45c19 0 38 1 51 9c7 5 22 17 22 43c0 21 -9 34 -21 42c-16 10 -36 10 -51 10h-46v-104zM420 0v421h98v-421h-98zM365 675l90 -46
l-156 -144l-54 34z" />
    <glyph glyph-name="afii10095.var.accented" unicode="&#x44d;`" horiz-adv-x="428" 
d="M40 317v93c41 16 83 22 119 22c84 0 138 -32 168 -62s61 -81 61 -159c0 -61 -18 -116 -62 -161c-40 -42 -89 -63 -157 -63c-36 0 -83 6 -129 24v93c46 -26 88 -29 115 -29c53 0 81 20 95 34c16 16 27 40 31 65h-195v82h192c-6 32 -24 55 -42 67c-24 17 -56 21 -81 21
c-36 0 -72 -6 -115 -27zM223 675l90 -46l-156 -144l-54 34z" />
    <glyph glyph-name="afii10096.var.accented" unicode="&#x44e;`" horiz-adv-x="700" 
d="M160 265h67c5 29 19 68 55 105c31 31 81 62 157 62c124 0 221 -92 221 -222c0 -129 -96 -223 -221 -223c-88 0 -138 41 -162 67c-22 24 -47 64 -52 121h-65v-175h-98v421h98v-156zM439 344c-61 0 -121 -39 -121 -135s60 -134 121 -134s121 38 121 134s-60 135 -121 135z
M425 675l90 -46l-156 -144l-54 34z" />
    <glyph glyph-name="afii10097.var.accented" unicode="&#x44f;`" horiz-adv-x="418" 
d="M8 0l132 167c-28 4 -51 17 -67 32c-27 26 -35 57 -35 87c0 27 6 66 39 97c36 34 79 38 122 38h157v-421h-98v155h-20l-115 -155h-115zM258 235v102h-57c-19 0 -37 -1 -51 -9c-13 -8 -24 -23 -24 -42c0 -21 10 -34 20 -41c12 -8 30 -10 54 -10h58zM284 675l90 -46
l-156 -144l-54 34z" />
    <glyph glyph-name="afii10071.var.accented" unicode="&#x451;`" horiz-adv-x="482" 
d="M357 142l82 -46c-18 -32 -44 -60 -71 -77c-34 -22 -79 -32 -124 -32c-56 0 -102 14 -142 54s-62 98 -62 161c0 65 23 128 67 173c35 35 81 57 141 57c67 0 110 -29 135 -55c54 -56 59 -134 59 -178v-12h-302c2 -30 15 -64 36 -85c23 -23 51 -27 75 -27c27 0 47 6 67 21
c17 13 30 30 39 46zM147 267h195c-4 23 -15 43 -30 57c-13 12 -34 24 -66 24c-34 0 -56 -14 -69 -27c-14 -13 -25 -33 -30 -54zM265 675l74 -37l-144 -144l-38 25zM52 575c0 32 23 56 55 56s56 -24 56 -56c0 -38 -33 -56 -56 -56c-24 0 -55 20 -55 56zM322 575
c0 32 24 56 56 56c38 0 56 -33 56 -56c0 -30 -26 -56 -56 -56c-23 0 -56 18 -56 56z" />
    <glyph glyph-name="fi" unicode="fi" horiz-adv-x="470" 
d="M268 331h-106v-331h-98v331h-34v90h34v140c0 40 1 79 26 115c22 31 65 65 146 65c97 0 131 -42 146 -65c25 -40 26 -75 26 -115v-29h-98v18c0 18 1 43 -12 65c-15 25 -38 32 -62 32c-33 0 -52 -14 -62 -32c-5 -8 -12 -25 -12 -65v-129h106v-90zM310 421h98v-421h-98v421z
" />
    <glyph glyph-name="fl" unicode="fl" horiz-adv-x="470" 
d="M268 331h-106v-331h-98v331h-34v90h34v140c0 40 1 79 26 115c22 31 65 65 146 65c97 0 131 -42 146 -65c24 -37 26 -73 26 -115v-561h-98v550c0 23 -2 47 -12 65c-16 28 -45 32 -62 32c-33 0 -52 -14 -62 -32c-5 -8 -12 -25 -12 -65v-129h106v-90z" />
    <glyph glyph-name=".notdef" horiz-adv-x="233" 
 />
    <glyph glyph-name="space" unicode=" " horiz-adv-x="233" 
 />
    <glyph glyph-name="exclam" unicode="!" horiz-adv-x="252" 
d="M175 165h-98v502h98v-502zM66 48c0 33 27 60 60 60s60 -27 60 -60s-27 -60 -60 -60s-60 27 -60 60z" />
    <glyph glyph-name="quotedbl" unicode="&#x22;" horiz-adv-x="366" 
d="M156 667l-18 -268h-72l-18 268h108zM318 667l-18 -268h-72l-18 268h108z" />
    <glyph glyph-name="numbersign" unicode="#" horiz-adv-x="600" 
d="M407 0h-98l31 196h-114l-31 -196h-98l31 196h-108l14 88h108l18 112h-108l14 88h108l29 183h98l-29 -183h114l29 183h98l-29 -183h108l-14 -88h-108l-18 -112h108l-14 -88h-108zM354 284l18 112h-114l-18 -112h114z" />
    <glyph glyph-name="dollar" unicode="$" horiz-adv-x="568" 
d="M476 567l-82 -48c-6 15 -15 29 -30 42c-20 17 -44 24 -72 24c-36 0 -60 -13 -74 -27c-16 -16 -20 -31 -20 -51c0 -23 7 -40 26 -56c14 -12 45 -27 63 -34l50 -20c37 -15 80 -35 111 -70c34 -38 46 -82 46 -126c0 -55 -15 -106 -58 -152c-33 -35 -69 -52 -110 -58v-101
h-74v98c-48 4 -91 22 -130 66c-36 40 -52 84 -56 130l101 22c0 -33 12 -64 28 -85c23 -29 52 -40 87 -40c32 0 56 8 79 32c24 24 31 49 31 80c0 29 -8 51 -29 73c-22 23 -42 30 -67 41l-64 27c-30 13 -71 38 -94 61c-31 32 -42 66 -42 102c0 54 20 99 51 129
c23 22 58 43 105 50v89h74v-88c25 -2 56 -10 87 -33c26 -20 49 -48 63 -77z" />
    <glyph glyph-name="percent" unicode="%" horiz-adv-x="810" 
d="M194 673c88 0 161 -71 161 -157c0 -85 -72 -157 -161 -157s-161 72 -161 157c0 86 73 157 161 157zM194 431c55 0 83 46 83 85s-28 85 -83 85s-83 -46 -83 -85s28 -85 83 -85zM191 18l381 660l47 -27l-381 -662zM616 307c88 0 161 -71 161 -157c0 -85 -72 -157 -161 -157
s-161 72 -161 157c0 86 73 157 161 157zM616 65c55 0 83 46 83 85s-28 85 -83 85s-83 -46 -83 -85s28 -85 83 -85z" />
    <glyph glyph-name="ampersand" unicode="&#x26;" horiz-adv-x="646" 
d="M537 313l65 -68l-79 -91l123 -154h-124l-66 82c-15 -16 -35 -34 -56 -49c-41 -29 -83 -46 -146 -46c-125 0 -200 83 -200 191c0 88 45 134 96 172c18 13 47 33 53 37c-23 23 -66 74 -66 138c0 76 48 154 158 154c106 0 160 -73 160 -144c0 -43 -17 -71 -29 -87
c-16 -21 -39 -44 -83 -77l118 -144zM395 154l-132 160c-22 -12 -54 -34 -73 -55c-28 -30 -36 -61 -36 -85c0 -54 41 -101 104 -101c28 0 51 10 75 26c21 15 50 43 62 55zM284 442l37 27c24 17 40 41 40 66c0 29 -19 60 -66 60c-41 0 -64 -25 -64 -59c0 -23 12 -45 23 -58z
" />
    <glyph glyph-name="quotesingle" unicode="'" horiz-adv-x="204" 
d="M156 667l-18 -268h-72l-18 268h108z" />
    <glyph glyph-name="parenleft" unicode="(" horiz-adv-x="324" 
d="M264 -142l-90 -35c-32 68 -52 131 -68 202c-21 94 -26 165 -26 255c0 93 6 167 28 265c16 72 35 130 66 195l90 -35c-26 -59 -48 -126 -60 -181c-16 -72 -24 -160 -24 -244c0 -109 12 -186 23 -236c13 -56 36 -127 61 -186z" />
    <glyph glyph-name="parenright" unicode=")" horiz-adv-x="324" 
d="M150 -177l-90 35c25 59 48 130 61 186c11 50 23 127 23 236c0 84 -8 172 -24 244c-12 55 -34 122 -60 181l90 35c31 -65 50 -123 66 -195c22 -98 28 -172 28 -265c0 -90 -5 -161 -26 -255c-16 -71 -36 -134 -68 -202z" />
    <glyph glyph-name="asterisk" unicode="*" horiz-adv-x="550" 
d="M136 655l107 -45l-7 119h78l-8 -118l108 44l25 -72l-114 -28l74 -90l-60 -47l-64 97l-64 -97l-60 47l74 88l-114 28z" />
    <glyph glyph-name="plus" unicode="+" 
d="M33 291v90h170v170h94v-170h170v-90h-170v-170h-94v170h-170z" />
    <glyph glyph-name="comma" unicode="," horiz-adv-x="320" 
d="M10 -129l102 254l88 -34l-124 -247z" />
    <glyph glyph-name="hyphen" unicode="-" horiz-adv-x="340" 
d="M50 162v102h240v-102h-240z" />
    <glyph glyph-name="period" unicode="." horiz-adv-x="252" 
d="M66 48c0 33 27 60 60 60s60 -27 60 -60s-27 -60 -60 -60s-60 27 -60 60z" />
    <glyph glyph-name="slash" unicode="/" horiz-adv-x="684" 
d="M0 -177l526 942l80 -36l-526 -942z" />
    <glyph glyph-name="zero" unicode="0" horiz-adv-x="568" 
d="M284 -11c-60 0 -109 24 -151 72c-70 80 -85 185 -85 272c0 86 15 193 85 273c42 48 92 72 151 72s109 -24 151 -72c70 -80 85 -187 85 -273c0 -87 -15 -192 -85 -272c-42 -48 -91 -72 -151 -72zM284 588c-26 0 -61 -11 -90 -55c-37 -55 -46 -141 -46 -199
c0 -59 9 -144 46 -200c29 -44 64 -55 90 -55s61 11 90 55c37 56 46 141 46 200c0 58 -9 144 -46 199c-29 44 -64 55 -90 55z" />
    <glyph glyph-name="one" unicode="1" horiz-adv-x="568" 
d="M250 0v573h-116l56 94h162v-667h-102z" />
    <glyph glyph-name="two" unicode="2" horiz-adv-x="568" 
d="M482 94v-94h-448l231 280c23 28 58 72 80 104c19 28 35 57 35 96c0 56 -37 108 -111 108c-75 0 -114 -58 -118 -121h-98c3 65 30 117 56 146c24 27 72 65 156 65c142 0 215 -97 215 -201c0 -55 -21 -100 -48 -140c-24 -36 -55 -73 -95 -120l-104 -123h249z" />
    <glyph glyph-name="three" unicode="3" horiz-adv-x="568" 
d="M166 497h-98c3 54 26 100 57 130c46 44 102 51 146 51c51 0 101 -10 144 -55c35 -36 48 -79 48 -127c0 -32 -6 -60 -23 -88c-18 -29 -41 -46 -60 -56c34 -13 55 -36 66 -53c19 -28 28 -65 28 -103c0 -66 -25 -117 -57 -149c-48 -48 -111 -58 -163 -58
c-51 0 -106 10 -149 56c-30 32 -52 85 -57 136h98c5 -30 19 -56 36 -72c14 -13 39 -30 81 -30c31 0 60 12 78 28c19 18 35 49 35 94c0 22 -4 54 -30 79c-29 28 -65 30 -86 30h-20v86h14c43 0 70 14 85 29c16 16 26 41 26 71c0 35 -15 56 -26 67c-23 22 -51 25 -71 25
c-24 0 -52 -4 -74 -27c-23 -24 -28 -60 -28 -64z" />
    <glyph glyph-name="four" unicode="4" horiz-adv-x="568" 
d="M448 716v-496h72v-94h-72v-126h-98v126h-330zM198 218h152v215z" />
    <glyph glyph-name="five" unicode="5" horiz-adv-x="568" 
d="M477 667v-94h-206l-33 -111c10 1 21 2 31 2c56 0 113 -19 154 -59c32 -31 65 -84 65 -171c0 -73 -23 -132 -68 -177c-53 -52 -117 -68 -185 -68c-39 0 -85 5 -128 30c-10 6 -48 29 -79 77l77 64c2 -5 20 -38 51 -58c22 -15 53 -23 87 -23c54 0 85 21 102 37
c20 20 43 56 43 113c0 55 -19 88 -40 108c-33 31 -77 37 -109 37c-29 0 -51 -4 -78 -14c-21 -8 -40 -17 -59 -30l99 337h276z" />
    <glyph glyph-name="six" unicode="6" horiz-adv-x="568" 
d="M348 690l74 -55l-159 -201c15 3 28 4 42 4c78 0 127 -34 154 -62c36 -38 59 -95 59 -156c0 -59 -21 -124 -66 -168c-56 -55 -128 -63 -172 -63c-58 0 -121 12 -172 65c-35 37 -58 86 -58 151c0 49 11 87 32 128c25 50 51 80 81 119zM285 351c-34 0 -72 -14 -96 -37
c-22 -21 -39 -57 -39 -99c0 -34 13 -74 39 -99c21 -20 61 -37 96 -37c31 0 69 12 94 37s39 65 39 99s-14 74 -39 99c-23 23 -60 37 -94 37z" />
    <glyph glyph-name="seven" unicode="7" horiz-adv-x="568" 
d="M50 27l332 546h-328v94h496l-420 -690z" />
    <glyph glyph-name="eight" unicode="8" horiz-adv-x="568" 
d="M284 303c-29 0 -59 -11 -79 -31s-31 -52 -31 -81c0 -26 10 -56 30 -78c14 -16 39 -34 80 -34s66 18 80 34c20 22 30 52 30 78c0 29 -11 61 -31 81s-50 31 -79 31zM284 588c-31 0 -56 -11 -73 -27c-17 -17 -28 -44 -28 -74c0 -31 12 -55 27 -70c18 -19 48 -30 74 -30
s56 11 74 30c15 15 27 39 27 70c0 30 -11 57 -28 74c-17 16 -42 27 -73 27zM394 347c31 -13 55 -33 70 -54c25 -33 30 -70 30 -100c0 -68 -26 -114 -53 -142c-31 -33 -81 -62 -157 -62s-126 29 -157 62c-27 28 -53 74 -53 142c0 30 5 67 30 100c15 21 39 41 70 54
c-28 12 -47 32 -59 50c-17 27 -24 61 -24 91c0 53 19 103 56 139c21 20 64 51 137 51s116 -31 137 -51c37 -36 56 -86 56 -139c0 -30 -7 -64 -24 -91c-12 -18 -31 -38 -59 -50z" />
    <glyph glyph-name="nine" unicode="9" horiz-adv-x="568" 
d="M220 -23l-74 55l157 201c-13 -3 -24 -4 -36 -4c-79 0 -129 35 -156 62c-34 34 -61 83 -61 152c0 67 26 126 66 167c42 43 98 68 172 68c91 0 144 -37 172 -66s58 -77 58 -151c0 -48 -11 -86 -32 -127c-25 -50 -51 -80 -81 -119zM283 316c34 0 70 13 96 40
c25 26 39 64 39 99c0 36 -14 71 -39 95s-61 38 -95 38c-37 0 -73 -17 -95 -38c-22 -22 -39 -57 -39 -98c0 -37 14 -74 39 -99c22 -21 57 -37 94 -37z" />
    <glyph glyph-name="colon" unicode=":" horiz-adv-x="252" 
d="M66 372c0 33 27 60 60 60s60 -27 60 -60s-27 -60 -60 -60s-60 27 -60 60zM66 47c0 33 27 60 60 60s60 -27 60 -60s-27 -60 -60 -60s-60 27 -60 60z" />
    <glyph glyph-name="semicolon" unicode=";" horiz-adv-x="320" 
d="M90 372c0 33 27 60 60 60s60 -27 60 -60s-27 -60 -60 -60s-60 27 -60 60zM10 -129l102 254l88 -34l-124 -247z" />
    <glyph glyph-name="less" unicode="&#x3c;" 
d="M137 332l330 -156v-96l-434 211v82l434 211v-96z" />
    <glyph glyph-name="equal" unicode="=" 
d="M33 380v84h434v-84h-434zM33 218v84h434v-84h-434z" />
    <glyph glyph-name="greater" unicode="&#x3e;" 
d="M363 332l-330 156v96l434 -211v-82l-434 -211v96z" />
    <glyph glyph-name="question" unicode="?" horiz-adv-x="434" 
d="M158 485h-102c-2 23 -2 31 -2 34c0 60 24 98 45 118c22 21 59 42 117 42c61 0 99 -23 121 -44c28 -27 43 -64 43 -112c0 -54 -20 -95 -59 -123c-14 -10 -33 -20 -70 -35l-30 -12c-15 -6 -30 -12 -40 -22s-15 -24 -15 -36c0 -16 7 -31 17 -39c6 -5 15 -10 30 -10
s28 4 38 15c12 13 16 33 16 53h98c0 -49 -19 -90 -44 -116c-25 -25 -63 -42 -109 -42c-45 0 -81 18 -105 41c-20 20 -41 54 -41 106c0 37 13 65 32 86c23 25 59 40 87 51c26 10 54 18 73 35c16 15 22 30 22 50c0 13 -2 32 -17 47c-12 12 -31 17 -46 17c-18 0 -36 -7 -46 -18
c-12 -12 -17 -33 -17 -53c0 -11 2 -23 4 -33zM158 47c0 33 27 60 60 60s60 -27 60 -60s-27 -60 -60 -60s-60 27 -60 60z" />
    <glyph glyph-name="at" unicode="@" horiz-adv-x="732" 
d="M474 439l10 52h68l-39 -201c-3 -15 -6 -29 -6 -45c0 -31 19 -40 32 -40c23 0 48 23 60 40c24 35 35 100 35 135c0 111 -77 237 -249 237c-161 0 -287 -125 -287 -289c0 -115 64 -219 172 -260c35 -14 73 -20 114 -20c47 0 126 7 203 41l17 -62c-29 -12 -105 -39 -215 -39
c-92 0 -175 23 -242 81c-47 41 -113 122 -113 260c0 201 148 348 348 348c175 0 316 -111 316 -296c0 -55 -14 -125 -48 -170c-26 -34 -69 -63 -115 -63c-43 0 -69 27 -76 62c-32 -50 -84 -68 -124 -68c-55 0 -141 37 -141 160c0 133 94 201 175 201c47 0 86 -22 105 -64z
M345 212c54 0 108 53 108 135c0 61 -37 86 -76 86c-55 0 -106 -46 -106 -130c0 -62 35 -91 74 -91z" />
    <glyph glyph-name="A" unicode="A" horiz-adv-x="656" 
d="M542 0l-70 161h-285l-73 -161h-110l332 706l316 -706h-110zM229 257h202l-99 226z" />
    <glyph glyph-name="B" unicode="B" horiz-adv-x="526" 
d="M80 667h101c86 0 140 -11 184 -52c36 -34 53 -77 53 -132c0 -26 -4 -53 -20 -79c-15 -26 -35 -39 -50 -46c12 -3 53 -14 86 -48c36 -38 44 -84 44 -125c0 -48 -12 -86 -44 -120c-53 -56 -136 -65 -187 -65h-167v667zM182 571v-191h31c25 0 59 3 83 26c23 22 26 53 26 76
c0 20 -3 44 -24 64c-23 22 -52 25 -81 25h-35zM182 296v-200h62c29 0 75 5 101 26c20 16 33 44 33 74c0 27 -10 53 -27 70c-28 27 -69 30 -105 30h-64z" />
    <glyph glyph-name="C" unicode="C" horiz-adv-x="620" 
d="M574 631v-120c-74 67 -143 74 -181 74c-145 0 -243 -107 -243 -254c0 -141 102 -250 244 -250c80 0 142 41 180 77v-121c-67 -40 -137 -50 -183 -50c-121 0 -197 55 -236 92c-78 73 -107 158 -107 252c0 123 51 208 107 261c69 65 149 87 241 87c61 0 120 -11 178 -48z
" />
    <glyph glyph-name="D" unicode="D" horiz-adv-x="644" 
d="M80 667h140c93 0 174 -10 248 -65c81 -61 128 -158 128 -269s-46 -207 -134 -269c-78 -55 -151 -64 -244 -64h-138v667zM182 571v-475h44c50 0 119 4 177 47c46 35 91 99 91 190c0 88 -42 157 -90 192c-58 42 -129 46 -178 46h-44z" />
    <glyph glyph-name="E" unicode="E" 
d="M448 667v-96h-266v-169h258v-96h-258v-210h266v-96h-368v667h368z" />
    <glyph glyph-name="F" unicode="F" horiz-adv-x="450" 
d="M414 667v-96h-232v-169h224v-96h-224v-306h-102v667h334z" />
    <glyph glyph-name="G" unicode="G" horiz-adv-x="748" 
d="M425 253v94h275v-5c0 -114 -34 -207 -99 -270c-69 -67 -151 -85 -227 -85c-97 0 -166 28 -227 91c-65 67 -99 156 -99 252c0 104 42 194 97 249c57 58 148 100 251 100c60 0 122 -13 174 -42c55 -31 89 -70 108 -100l-81 -57c-20 28 -50 58 -82 76c-37 22 -77 29 -118 29
c-87 0 -143 -36 -176 -69c-44 -44 -71 -115 -71 -187c0 -67 25 -134 69 -181c46 -49 103 -67 167 -67c58 0 106 17 149 59c37 36 52 75 56 113h-166z" />
    <glyph glyph-name="H" unicode="H" horiz-adv-x="650" 
d="M182 667v-264h286v264h102v-667h-102v307h-286v-307h-102v667h102z" />
    <glyph glyph-name="I" unicode="I" horiz-adv-x="262" 
d="M80 667h102v-667h-102v667z" />
    <glyph glyph-name="J" unicode="J" horiz-adv-x="362" 
d="M180 667h102v-432c0 -53 -2 -106 -25 -152c-21 -42 -66 -96 -157 -96c-59 0 -98 21 -118 34l50 86c13 -11 34 -24 70 -24c17 0 50 3 67 45c6 15 11 39 11 107v432z" />
    <glyph glyph-name="K" unicode="K" horiz-adv-x="586" 
d="M182 667v-266l258 266h134l-301 -302l303 -365h-136l-238 296l-20 -20v-276h-102v667h102z" />
    <glyph glyph-name="L" unicode="L" horiz-adv-x="394" 
d="M80 667h102v-571h196v-96h-298v667z" />
    <glyph glyph-name="M" unicode="M" horiz-adv-x="852" 
d="M164 0h-104l140 717l232 -518l234 518l126 -717h-104l-68 402l-194 -433l-192 434z" />
    <glyph glyph-name="N" unicode="N" horiz-adv-x="746" 
d="M182 0h-102v712l484 -507v462h102v-708l-484 507v-466z" />
    <glyph glyph-name="O" unicode="O" horiz-adv-x="790" 
d="M395 679c200 0 347 -150 347 -346s-147 -346 -347 -346s-347 150 -347 346s147 346 347 346zM395 81c143 0 245 104 245 252s-102 252 -245 252s-245 -104 -245 -252s102 -252 245 -252z" />
    <glyph glyph-name="P" unicode="P" horiz-adv-x="480" 
d="M80 667h147c41 0 98 -4 146 -36c56 -37 83 -101 83 -162c0 -39 -10 -99 -65 -146c-53 -45 -114 -52 -163 -52h-46v-271h-102v667zM182 573v-208h46c88 0 130 43 130 105c0 37 -15 103 -131 103h-45z" />
    <glyph glyph-name="Q" unicode="Q" horiz-adv-x="790" 
d="M632 -13l-50 50c-52 -33 -110 -50 -187 -50c-200 0 -347 148 -347 346c0 196 147 346 347 346c199 0 347 -150 347 -346c0 -122 -54 -198 -92 -239l108 -107h-126zM479 264l102 -101c32 37 59 86 59 170c0 148 -102 252 -245 252s-245 -104 -245 -252s102 -252 245 -252
c50 0 86 11 115 26l-158 157h127z" />
    <glyph glyph-name="R" unicode="R" horiz-adv-x="534" 
d="M80 667h119c81 0 133 -10 176 -39c73 -49 79 -128 79 -157c0 -96 -59 -166 -148 -186l208 -285h-123l-191 273h-18v-273h-102v667zM182 573v-212h32c28 0 142 3 142 109c0 94 -89 103 -139 103h-35z" />
    <glyph glyph-name="S" unicode="S" horiz-adv-x="516" 
d="M450 567l-82 -48c-6 15 -15 29 -30 42c-21 17 -43 24 -72 24c-62 0 -94 -37 -94 -80c0 -20 7 -55 72 -81l67 -27c123 -50 157 -120 157 -196c0 -127 -90 -214 -215 -214c-77 0 -123 29 -157 67c-36 40 -52 84 -56 130l101 22c0 -33 12 -64 28 -85c19 -24 47 -40 87 -40
c62 0 110 45 110 112c0 68 -52 96 -96 114l-64 27c-55 23 -136 69 -136 169c0 90 70 176 195 176c72 0 113 -27 134 -45c18 -16 37 -39 51 -67z" />
    <glyph glyph-name="T" unicode="T" horiz-adv-x="428" 
d="M418 571h-153v-571h-102v571h-153v96h408v-96z" />
    <glyph glyph-name="U" unicode="U" horiz-adv-x="654" 
d="M80 667h102v-402c0 -36 1 -80 21 -115c20 -34 65 -69 124 -69s104 35 124 69c20 35 21 79 21 115v402h102v-429c0 -53 -11 -117 -62 -173c-35 -38 -94 -78 -185 -78s-150 40 -185 78c-51 56 -62 120 -62 173v429z" />
    <glyph glyph-name="V" unicode="V" horiz-adv-x="600" 
d="M4 667h110l186 -465l186 465h110l-296 -710z" />
    <glyph glyph-name="W" unicode="W" horiz-adv-x="940" 
d="M4 667h110l176 -446l180 478l174 -478l182 446h110l-298 -710l-174 473l-176 -473z" />
    <glyph glyph-name="X" unicode="X" horiz-adv-x="546" 
d="M10 0l210 348l-184 319h114l130 -226l133 226h114l-192 -319l201 -348h-114l-146 255l-152 -255h-114z" />
    <glyph glyph-name="Y" unicode="Y" horiz-adv-x="540" 
d="M219 0v288l-219 379h116l154 -267l154 267h116l-219 -379v-288h-102z" />
    <glyph glyph-name="Z" unicode="Z" horiz-adv-x="554" 
d="M524 667l-328 -571h320v-96h-486l328 571h-274v96h440z" />
    <glyph glyph-name="bracketleft" unicode="[" horiz-adv-x="316" 
d="M270 639h-84v-726h84v-90h-182v906h182v-90z" />
    <glyph glyph-name="backslash" unicode="\" horiz-adv-x="684" 
d="M684 -177l-80 -36l-526 942l80 36z" />
    <glyph glyph-name="bracketright" unicode="]" horiz-adv-x="316" 
d="M46 -87h84v726h-84v90h182v-906h-182v90z" />
    <glyph glyph-name="asciicircum" unicode="^" 
d="M250 590l-130 -240h-104l171 317h126l171 -317h-104z" />
    <glyph glyph-name="underscore" unicode="_" horiz-adv-x="400" 
d="M0 -144v86h400v-86h-400z" />
    <glyph glyph-name="grave" unicode="`" 
d="M241 485l-156 144l90 46l120 -156z" />
    <glyph glyph-name="a" unicode="a" horiz-adv-x="530" 
d="M370 372v49h98v-421h-98v44c-43 -50 -96 -57 -126 -57c-130 0 -204 108 -204 224c0 137 94 221 205 221c31 0 85 -8 125 -60zM257 344c-71 0 -117 -60 -117 -135c0 -73 46 -134 117 -134c62 0 119 45 119 133c0 92 -57 136 -119 136z" />
    <glyph glyph-name="b" unicode="b" horiz-adv-x="530" 
d="M160 729v-357c40 52 94 60 125 60c111 0 205 -84 205 -221c0 -116 -74 -224 -204 -224c-30 0 -83 7 -126 57v-44h-98v729h98zM273 344c-62 0 -119 -44 -119 -136c0 -88 57 -133 119 -133c71 0 117 61 117 134c0 75 -46 135 -117 135z" />
    <glyph glyph-name="c" unicode="c" horiz-adv-x="420" 
d="M388 402v-110c-45 44 -89 52 -119 52c-46 0 -75 -19 -93 -37s-36 -50 -36 -97c0 -49 19 -82 38 -101c22 -21 53 -34 89 -34c40 0 87 16 121 54v-109c-24 -15 -63 -33 -128 -33c-70 0 -120 20 -160 62c-30 31 -60 81 -60 158c0 79 33 132 64 163c33 33 86 62 169 62
c32 0 70 -5 115 -30z" />
    <glyph glyph-name="d" unicode="d" horiz-adv-x="530" 
d="M370 372v357h98v-729h-98v44c-43 -50 -96 -57 -126 -57c-130 0 -204 108 -204 224c0 137 94 221 205 221c31 0 85 -8 125 -60zM257 344c-71 0 -117 -60 -117 -135c0 -73 46 -134 117 -134c62 0 119 45 119 133c0 92 -57 136 -119 136z" />
    <glyph glyph-name="e" unicode="e" horiz-adv-x="482" 
d="M357 142l82 -46c-18 -32 -44 -60 -71 -77c-34 -22 -79 -32 -124 -32c-56 0 -102 14 -142 54s-62 98 -62 161c0 65 23 128 67 173c35 35 81 57 141 57c67 0 110 -29 135 -55c54 -56 59 -134 59 -178v-12h-302c2 -30 15 -64 36 -85c23 -23 51 -27 75 -27c27 0 47 6 67 21
c17 13 30 30 39 46zM147 267h195c-4 23 -15 43 -30 57c-13 12 -34 24 -66 24c-34 0 -56 -14 -69 -27c-14 -13 -25 -33 -30 -54z" />
    <glyph glyph-name="f" unicode="f" horiz-adv-x="270" 
d="M276 331h-106v-331h-98v331h-42v90h42v146c0 65 17 106 41 132c18 19 49 41 100 41c21 0 42 -3 63 -12v-97c-20 12 -33 15 -47 15c-12 0 -30 -2 -43 -16c-5 -5 -16 -20 -16 -50v-159h106v-90z" />
    <glyph glyph-name="g" unicode="g" horiz-adv-x="530" 
d="M370 375v46h98v-387c0 -99 -11 -170 -69 -219c-27 -22 -71 -45 -140 -45c-49 0 -98 12 -138 52c-31 31 -55 80 -62 131h95c4 -23 16 -50 31 -66c12 -13 36 -29 76 -29c41 0 65 16 77 28c32 31 32 75 32 106v55c-45 -57 -100 -60 -128 -60c-54 0 -99 15 -139 57
c-38 40 -63 97 -63 167c0 77 29 130 62 163c42 43 92 58 143 58c42 0 89 -14 125 -57zM257 344c-27 0 -52 -7 -74 -28c-25 -23 -43 -62 -43 -107c0 -42 16 -83 42 -106c18 -16 45 -28 75 -28c31 0 58 9 82 34c29 31 37 67 37 99c0 47 -15 82 -40 106c-24 24 -51 30 -79 30z
" />
    <glyph glyph-name="h" unicode="h" horiz-adv-x="486" 
d="M62 0v729h98v-344c42 43 88 47 113 47c77 0 112 -40 124 -57c26 -38 27 -87 27 -117v-258h-98v249c0 25 0 52 -19 73c-11 12 -30 22 -55 22c-33 0 -59 -16 -72 -35c-14 -20 -20 -52 -20 -106v-203h-98z" />
    <glyph glyph-name="i" unicode="i" horiz-adv-x="222" 
d="M62 421h98v-421h-98v421zM48 595c0 36 27 63 63 63s63 -27 63 -63s-27 -63 -63 -63s-63 27 -63 63z" />
    <glyph glyph-name="j" unicode="j" horiz-adv-x="222" 
d="M62 421h98v-650h-98v650zM48 595c0 36 27 63 63 63s63 -27 63 -63s-27 -63 -63 -63s-63 27 -63 63z" />
    <glyph glyph-name="k" unicode="k" horiz-adv-x="442" 
d="M62 729h98v-449l137 141h130l-181 -175l194 -246h-124l-138 180l-18 -18v-162h-98v729z" />
    <glyph glyph-name="l" unicode="l" horiz-adv-x="222" 
d="M62 729h98v-729h-98v729z" />
    <glyph glyph-name="m" unicode="m" horiz-adv-x="702" 
d="M62 0v421h98v-39c33 40 72 50 104 50c44 0 85 -21 109 -62c35 50 88 62 125 62c51 0 96 -24 120 -66c8 -14 22 -45 22 -106v-260h-98v232c0 47 -5 66 -9 75c-6 16 -21 37 -56 37c-24 0 -45 -13 -58 -31c-17 -24 -19 -60 -19 -96v-217h-98v232c0 47 -5 66 -9 75
c-6 16 -21 37 -56 37c-24 0 -45 -13 -58 -31c-17 -24 -19 -60 -19 -96v-217h-98z" />
    <glyph glyph-name="n" unicode="n" horiz-adv-x="485" 
d="M61 0v421h98v-39c42 47 90 50 114 50c78 0 111 -39 124 -57c16 -23 26 -52 26 -117v-258h-98v234c0 107 -40 110 -77 110c-44 0 -89 -6 -89 -142v-202h-98z" />
    <glyph glyph-name="o" unicode="o" horiz-adv-x="530" 
d="M265 432c127 0 225 -92 225 -222c0 -129 -98 -223 -225 -223s-225 94 -225 223c0 130 98 222 225 222zM265 75c77 0 125 53 125 134c0 96 -63 135 -125 135s-125 -39 -125 -135c0 -81 48 -134 125 -134z" />
    <glyph glyph-name="p" unicode="p" horiz-adv-x="530" 
d="M160 49v-278h-98v650h98v-46c36 43 83 57 125 57c111 0 205 -85 205 -219c0 -142 -104 -226 -204 -226c-23 0 -82 8 -126 62zM273 344c-62 0 -119 -44 -119 -136c0 -88 57 -133 119 -133c71 0 117 61 117 134c0 75 -46 135 -117 135z" />
    <glyph glyph-name="q" unicode="q" horiz-adv-x="530" 
d="M370 375v46h98v-650h-98v276c-43 -53 -96 -60 -126 -60c-130 0 -204 107 -204 224c0 137 94 221 205 221c42 0 89 -14 125 -57zM257 344c-71 0 -117 -60 -117 -135c0 -73 46 -134 117 -134c62 0 119 45 119 133c0 92 -57 136 -119 136z" />
    <glyph glyph-name="r" unicode="r" horiz-adv-x="332" 
d="M62 0v421h98v-38c11 13 27 27 41 35c19 11 38 14 60 14c24 0 50 -4 77 -20l-40 -89c-22 14 -40 15 -50 15c-21 0 -42 -3 -61 -23c-27 -29 -27 -69 -27 -97v-218h-98z" />
    <glyph glyph-name="s" unicode="s" horiz-adv-x="360" 
d="M319 358l-73 -48c-10 16 -29 36 -60 36c-14 0 -24 -5 -30 -11c-5 -5 -9 -13 -9 -22c0 -11 5 -18 14 -24c6 -4 12 -6 33 -17l50 -25c22 -11 43 -22 59 -39c23 -23 31 -49 31 -78c0 -38 -14 -71 -37 -96c-33 -36 -74 -47 -118 -47c-27 0 -61 4 -91 27c-24 18 -44 47 -54 77
l80 38c5 -14 14 -32 23 -40c6 -6 20 -16 43 -16c15 0 31 5 40 14c8 8 14 21 14 33s-4 22 -13 32c-12 12 -26 19 -42 26l-36 17c-19 9 -42 20 -58 36c-22 21 -30 44 -30 71c0 34 13 67 35 90c19 20 51 40 103 40c30 0 54 -6 78 -22c14 -9 33 -25 48 -52z" />
    <glyph glyph-name="t" unicode="t" horiz-adv-x="242" 
d="M238 331h-75v-331h-98v331h-41v90h41v154h98v-154h75v-90z" />
    <glyph glyph-name="u" unicode="u" horiz-adv-x="484" 
d="M62 421h98v-241c0 -25 1 -54 18 -76c13 -17 36 -29 64 -29s51 12 64 29c17 22 18 51 18 76v241h98v-244c0 -54 -6 -99 -45 -138c-38 -38 -90 -52 -137 -52c-43 0 -95 13 -133 52c-39 39 -45 84 -45 138v244z" />
    <glyph glyph-name="v" unicode="v" horiz-adv-x="448" 
d="M6 421h110l108 -240l108 240h110l-218 -451z" />
    <glyph glyph-name="w" unicode="w" horiz-adv-x="686" 
d="M6 421h110l109 -241l118 277l118 -277l109 241h110l-219 -451l-118 269l-118 -269z" />
    <glyph glyph-name="x" unicode="x" horiz-adv-x="496" 
d="M6 0l186 228l-150 193h116l93 -123l94 123h120l-155 -193l180 -228h-118l-121 157l-125 -157h-120z" />
    <glyph glyph-name="y" unicode="y" horiz-adv-x="482" 
d="M31 -229l155 295l-180 355h118l120 -246l122 246h110l-335 -650h-110z" />
    <glyph glyph-name="z" unicode="z" horiz-adv-x="480" 
d="M472 421l-271 -331h250v-90h-443l273 331h-215v90h406z" />
    <glyph glyph-name="braceleft" unicode="{" 
d="M288 565v-168c0 -20 -2 -53 -12 -74c-10 -20 -30 -38 -50 -47c20 -9 40 -27 50 -47c10 -21 12 -54 12 -74v-168c0 -22 1 -48 17 -64c16 -15 48 -16 71 -16h8v-84h-47c-49 0 -82 8 -103 24c-41 31 -44 84 -44 115v191c0 27 -4 74 -56 83v80c52 9 56 56 56 83v191
c0 31 3 84 44 115c21 16 54 24 103 24h47v-84h-8c-23 0 -55 -1 -71 -16c-16 -16 -17 -42 -17 -64z" />
    <glyph glyph-name="bar" unicode="|" 
d="M202 -250v1000h96v-1000h-96z" />
    <glyph glyph-name="braceright" unicode="}" 
d="M230 397v168c0 22 -1 48 -17 64c-16 15 -48 16 -71 16h-8v84h47c49 0 82 -8 103 -24c41 -31 44 -84 44 -115v-191c0 -27 4 -74 56 -83v-80c-52 -9 -56 -56 -56 -83v-191c0 -31 -3 -84 -44 -115c-21 -16 -54 -24 -103 -24h-47v84h8c23 0 55 1 71 16c16 16 17 42 17 64v168
c0 20 2 53 12 74c10 20 30 38 50 47c-20 9 -40 27 -50 47c-10 21 -12 54 -12 74z" />
    <glyph glyph-name="asciitilde" unicode="~" 
d="M435 361l57 -33c-11 -26 -33 -67 -66 -93c-31 -24 -59 -28 -83 -28c-35 0 -60 10 -112 32c-40 17 -66 26 -87 26c-24 0 -40 -10 -51 -22c-2 -2 -18 -18 -29 -45l-56 36c5 12 23 53 50 83c15 17 45 42 92 42c14 0 45 -3 110 -31c28 -12 59 -28 93 -28c26 0 38 8 49 18
c13 11 24 25 33 43z" />
    <glyph glyph-name="uni00A0" unicode="&#xa0;" horiz-adv-x="233" 
 />
    <glyph glyph-name="exclamdown" unicode="&#xa1;" horiz-adv-x="252" 
d="M77 272h98v-502h-98v502zM186 389c0 -33 -27 -60 -60 -60s-60 27 -60 60s27 60 60 60s60 -27 60 -60z" />
    <glyph glyph-name="cent" unicode="&#xa2;" horiz-adv-x="568" 
d="M438 527v-109c-28 30 -69 51 -122 51c-45 0 -72 -19 -87 -34c-26 -25 -39 -64 -39 -100c0 -42 15 -78 38 -100c21 -20 55 -35 92 -35c42 0 86 18 118 54v-109c-27 -18 -59 -30 -94 -32v-100h-74v103c-50 8 -92 32 -120 60c-50 50 -60 112 -60 158c0 67 20 121 68 166
c37 35 74 49 112 54v101h74v-99c35 -3 67 -14 94 -29z" />
    <glyph glyph-name="sterling" unicode="&#xa3;" horiz-adv-x="568" 
d="M516 444h-98v4c0 37 -10 80 -35 105c-13 13 -38 31 -80 31c-38 0 -66 -12 -86 -31c-23 -23 -33 -53 -33 -81c0 -26 11 -66 51 -142h130v-72h-101c2 -6 12 -35 12 -65c0 -20 -4 -43 -14 -65l53 -19c21 -7 51 -20 76 -20c40 0 61 39 69 63l82 -48c-12 -25 -31 -55 -51 -75
c-29 -29 -60 -38 -97 -38c-46 0 -86 16 -112 25c-46 17 -76 28 -101 28c-23 0 -53 -13 -68 -59l-87 44c15 33 41 67 70 87c24 16 46 21 63 22c10 20 15 40 15 62s-3 39 -15 58h-114v72h78c-31 65 -41 108 -41 141c0 56 20 107 57 144c30 29 83 63 165 63
c70 0 118 -23 151 -56c54 -54 61 -126 61 -173v-5z" />
    <glyph glyph-name="currency" unicode="&#xa4;" horiz-adv-x="668" 
d="M92 660l99 -99c26 21 71 48 143 48s117 -27 143 -48l99 99l54 -54l-99 -99c17 -22 45 -67 45 -140s-28 -118 -45 -140l99 -99l-54 -54l-99 99c-26 -21 -71 -48 -143 -48s-117 27 -143 48l-99 -99l-54 54l99 99c-17 22 -45 67 -45 140s28 118 45 140l-99 99zM334 211
c86 0 152 65 152 156s-66 156 -152 156s-152 -65 -152 -156s66 -156 152 -156z" />
    <glyph glyph-name="yen" unicode="&#xa5;" horiz-adv-x="568" 
d="M523 377h-143l-41 -74h184v-70h-192v-233h-94v233h-192v70h184l-41 74h-143v70h104l-121 220h110l146 -267l146 267h110l-121 -220h104v-70z" />
    <glyph glyph-name="brokenbar" unicode="&#xa6;" 
d="M202 390v360h96v-360h-96zM202 -250v360h96v-360h-96z" />
    <glyph glyph-name="section" unicode="&#xa7;" horiz-adv-x="568" 
d="M484 525h-94c0 24 -4 60 -17 80c-14 22 -41 38 -74 38c-30 0 -56 -12 -71 -28c-14 -15 -24 -42 -24 -62s7 -38 20 -51s34 -23 75 -37c60 -20 107 -37 139 -69c22 -21 46 -58 46 -115c0 -31 -6 -66 -24 -94c-16 -26 -44 -48 -70 -61c65 -34 74 -95 74 -127
c0 -47 -14 -88 -48 -122c-35 -35 -86 -54 -140 -54c-56 0 -106 20 -139 53c-47 47 -53 113 -53 142h94c0 -30 9 -63 26 -81c14 -16 39 -28 72 -28c37 0 58 15 66 22c12 10 26 30 26 59c0 25 -9 47 -31 66s-45 33 -75 37c-27 4 -106 43 -128 66c-38 39 -44 84 -44 118
c0 36 7 66 27 95c12 18 34 41 69 57c-20 10 -39 25 -55 48c-18 26 -23 48 -23 76c0 52 19 92 47 121c42 44 94 55 143 55c41 0 95 -9 137 -52c47 -48 49 -105 49 -147v-5zM287 377c-28 0 -53 -11 -69 -27c-17 -17 -28 -42 -28 -71s11 -54 27 -70c19 -19 46 -28 70 -28
c26 0 52 11 70 29c17 17 27 41 27 69c0 24 -10 52 -28 71c-17 17 -43 27 -69 27z" />
    <glyph glyph-name="dieresis" unicode="&#xa8;" 
d="M98 569c0 35 27 62 62 62s62 -27 62 -62s-27 -62 -62 -62s-62 27 -62 62zM278 569c0 35 27 62 62 62s62 -27 62 -62s-27 -62 -62 -62s-62 27 -62 62z" />
    <glyph glyph-name="copyright" unicode="&#xa9;" horiz-adv-x="758" 
d="M33 333c0 199 146 347 346 347s346 -148 346 -347s-146 -347 -346 -347s-346 148 -346 347zM669 333c0 166 -121 297 -290 297s-290 -131 -290 -297c0 -167 122 -297 290 -297s290 130 290 297zM512 510v-87c-35 34 -80 50 -118 50c-64 0 -139 -45 -139 -141
c0 -81 57 -138 140 -138c31 0 73 10 117 51v-88c-34 -19 -74 -31 -118 -31c-123 0 -215 88 -215 206c0 122 94 209 219 209c27 0 66 -3 114 -31z" />
    <glyph glyph-name="ordfeminine" unicode="&#xaa;" horiz-adv-x="372" 
d="M253 632v28h66v-266h-66v25c-27 -29 -58 -32 -79 -32c-31 0 -65 6 -94 35c-23 23 -39 59 -39 103c0 46 18 83 40 106c23 24 53 36 90 36c47 0 71 -21 82 -35zM182 610c-22 0 -38 -7 -50 -18c-10 -9 -25 -29 -25 -66c0 -27 8 -47 22 -61s35 -22 53 -22c21 0 41 9 54 23
c18 19 20 44 20 60c0 27 -8 51 -24 66c-9 8 -25 18 -50 18zM52 343h267v-52h-267v52z" />
    <glyph glyph-name="guillemotleft" unicode="&#xab;" horiz-adv-x="507" 
d="M140 219l127 -165l-65 -47l-162 212l162 212l65 -47zM326 219l127 -165l-65 -47l-162 212l162 212l65 -47z" />
    <glyph glyph-name="logicalnot" unicode="&#xac;" 
d="M467 0h-98v179h-336v88h434v-267z" />
    <glyph glyph-name="uni00AD" unicode="&#xad;" horiz-adv-x="340" 
d="M50 162v102h240v-102h-240z" />
    <glyph glyph-name="registered" unicode="&#xae;" horiz-adv-x="758" 
d="M33 333c0 199 146 347 346 347s346 -148 346 -347s-146 -347 -346 -347s-346 148 -346 347zM669 333c0 166 -121 297 -290 297s-290 -131 -290 -297c0 -167 122 -297 290 -297s290 130 290 297zM548 153h-87l-116 148v-148h-71v374h99c119 0 134 -76 134 -112
c0 -55 -33 -93 -83 -106zM345 464v-104h14c52 0 78 21 78 53c0 48 -50 51 -76 51h-16z" />
    <glyph glyph-name="macron" unicode="&#xaf;" 
d="M85 508v78h330v-78h-330z" />
    <glyph glyph-name="degree" unicode="&#xb0;" 
d="M104 522c0 81 63 145 146 145s146 -64 146 -145s-63 -145 -146 -145s-146 64 -146 145zM166 522c0 -50 37 -87 84 -87s84 37 84 87s-37 87 -84 87s-84 -37 -84 -87z" />
    <glyph glyph-name="plusminus" unicode="&#xb1;" 
d="M33 350v90h170v163h94v-163h170v-90h-170v-163h-94v163h-170zM33 60v90h434v-90h-434z" />
    <glyph glyph-name="twosuperior" unicode="&#xb2;" horiz-adv-x="370" 
d="M314 333v-66h-290l146 162c15 17 37 43 50 62c12 17 21 34 21 57c0 37 -27 60 -63 60c-47 0 -69 -39 -73 -73h-70c2 34 14 70 37 96c34 38 77 43 103 43c90 0 138 -59 138 -124c0 -31 -13 -57 -30 -85c-21 -33 -37 -50 -55 -70l-55 -62h141z" />
    <glyph glyph-name="threesuperior" unicode="&#xb3;" horiz-adv-x="370" 
d="M115 553h-70c2 24 10 51 23 70c15 23 48 51 110 51c90 0 127 -55 127 -112c0 -13 -1 -62 -52 -84c11 -4 59 -24 59 -91c0 -66 -45 -127 -141 -127c-61 0 -106 26 -128 78c-6 15 -10 30 -11 48h70c6 -60 61 -60 69 -60c48 0 69 30 69 62c0 16 -6 58 -69 58h-24v66h24
c22 0 63 2 63 47c0 33 -24 49 -58 49c-38 0 -59 -23 -61 -55z" />
    <glyph glyph-name="acute" unicode="&#xb4;" 
d="M325 675l90 -46l-156 -144l-54 34z" />
    <glyph glyph-name="mu" unicode="&#xb5;" horiz-adv-x="524" 
d="M160 -229h-98v650h98v-205c0 -44 7 -72 17 -91c21 -39 58 -49 84 -49c17 0 58 6 83 50c15 26 20 57 20 96v199h98v-421h-98v73c-16 -52 -57 -85 -106 -85c-46 0 -80 30 -98 69v-286z" />
    <glyph glyph-name="mu" unicode="&#x3bc;" horiz-adv-x="524" 
d="M160 -229h-98v650h98v-205c0 -44 7 -72 17 -91c21 -39 58 -49 84 -49c17 0 58 6 83 50c15 26 20 57 20 96v199h98v-421h-98v73c-16 -52 -57 -85 -106 -85c-46 0 -80 30 -98 69v-286z" />
    <glyph glyph-name="paragraph" unicode="&#xb6;" horiz-adv-x="616" 
d="M301 -95h-83v412h-13c-58 0 -107 22 -137 53c-24 24 -44 64 -44 119c0 54 21 102 56 132c51 43 132 46 168 46h297v-76h-66v-686h-82v686h-96v-686z" />
    <glyph glyph-name="periodcentered" unicode="&#xb7;" horiz-adv-x="200" 
d="M22 340c0 44 34 78 78 78s78 -34 78 -78s-34 -78 -78 -78s-78 34 -78 78z" />
    <glyph glyph-name="cedilla" unicode="&#xb8;" 
d="M258 -53l82 -32l-102 -134l-64 32z" />
    <glyph glyph-name="onesuperior" unicode="&#xb9;" horiz-adv-x="370" 
d="M162 267v334h-78l42 66h110v-400h-74z" />
    <glyph glyph-name="ordmasculine" unicode="&#xba;" horiz-adv-x="376" 
d="M188 386c-52 0 -87 21 -107 41c-23 23 -39 59 -39 102c0 47 20 80 41 100c18 17 51 38 105 38c51 0 84 -19 105 -38c33 -31 41 -70 41 -102c0 -37 -10 -71 -39 -100c-21 -20 -54 -41 -107 -41zM188 611c-21 0 -41 -8 -54 -21c-14 -14 -25 -37 -25 -63c0 -25 9 -46 23 -61
s31 -23 56 -23c22 0 39 6 55 22c15 16 24 35 24 61c0 38 -18 57 -25 64c-13 12 -33 21 -54 21zM52 343h272v-52h-272v52z" />
    <glyph glyph-name="guillemotright" unicode="&#xbb;" horiz-adv-x="507" 
d="M367 219l-127 165l65 47l162 -212l-162 -212l-65 47zM181 219l-127 165l65 47l162 -212l-162 -212l-65 47z" />
    <glyph glyph-name="onequarter" unicode="&#xbc;" horiz-adv-x="800" 
d="M162 267v334h-78l42 66h108v-400h-72zM225 17l382 661l48 -28l-382 -661zM725 430v-288h43v-66h-43v-76h-72v76h-209zM575 138h78v103z" />
    <glyph glyph-name="onehalf" unicode="&#xbd;" horiz-adv-x="800" 
d="M162 267v334h-78l42 66h108v-400h-72zM165 17l382 661l48 -28l-382 -661zM744 66v-66h-290l146 162c15 17 37 43 50 62c12 17 21 34 21 57c0 37 -27 60 -63 60c-47 0 -69 -39 -73 -73h-70c2 34 14 70 37 96c34 38 77 43 103 43c90 0 138 -59 138 -124
c0 -31 -13 -57 -30 -85c-21 -33 -37 -50 -55 -70l-55 -62h141z" />
    <glyph glyph-name="threequarters" unicode="&#xbe;" horiz-adv-x="800" 
d="M32 386h70c1 -21 11 -36 19 -43c13 -12 32 -17 50 -17c20 0 40 7 52 18c8 7 17 21 17 44c0 20 -7 33 -15 40c-11 11 -30 18 -54 18h-24v66h18c17 0 37 0 54 14c11 9 15 21 15 33c0 13 -5 25 -12 33c-13 14 -33 16 -46 16c-12 0 -30 -2 -43 -15c-10 -9 -16 -25 -18 -40
h-70c1 33 14 65 35 86c31 31 74 35 98 35c28 0 67 -4 97 -34c20 -20 31 -45 31 -78c0 -19 -4 -37 -13 -51c-8 -13 -22 -26 -40 -33c13 -5 30 -15 40 -28c13 -16 19 -42 19 -63c0 -30 -10 -62 -32 -86c-17 -18 -50 -41 -109 -41c-51 0 -84 18 -104 40s-33 54 -35 86zM225 17
l382 661l48 -28l-382 -661zM575 138h78v103zM725 430v-288h43v-66h-43v-76h-72v76h-209z" />
    <glyph glyph-name="questiondown" unicode="&#xbf;" horiz-adv-x="434" 
d="M276 -48h102c2 -23 2 -31 2 -34c0 -60 -24 -98 -45 -118c-22 -21 -59 -42 -117 -42c-61 0 -99 23 -121 44c-28 27 -43 64 -43 112c0 54 20 95 59 123c14 10 33 20 70 35l30 12c15 6 30 12 40 22s15 24 15 36c0 16 -7 31 -17 39c-6 5 -15 10 -30 10s-28 -4 -38 -15
c-12 -13 -16 -33 -16 -53h-98c0 49 19 90 44 116c25 25 63 42 109 42c45 0 81 -18 105 -41c20 -20 41 -54 41 -106c0 -37 -13 -65 -32 -86c-23 -25 -59 -40 -87 -51c-26 -10 -54 -18 -73 -35c-16 -15 -22 -30 -22 -50c0 -13 2 -32 17 -47c12 -12 31 -17 46 -17
c18 0 36 7 46 18c12 12 17 33 17 53c0 11 -2 23 -4 33zM276 389c0 -33 -27 -60 -60 -60s-60 27 -60 60s27 60 60 60s60 -27 60 -60z" />
    <glyph glyph-name="Agrave" unicode="&#xc0;" horiz-adv-x="656" 
d="M542 0l-70 161h-285l-73 -161h-110l332 706l316 -706h-110zM229 257h202l-99 226zM344 727l-176 119l86 60l138 -139z" />
    <glyph glyph-name="Aacute" unicode="&#xc1;" horiz-adv-x="656" 
d="M542 0l-70 161h-285l-73 -161h-110l332 706l316 -706h-110zM229 257h202l-99 226zM312 727l-48 40l138 139l86 -60z" />
    <glyph glyph-name="Acircumflex" unicode="&#xc2;" horiz-adv-x="656" 
d="M542 0l-70 161h-285l-73 -161h-110l332 706l316 -706h-110zM229 257h202l-99 226zM330 812l-99 -82l-66 56l165 134l165 -134l-66 -56z" />
    <glyph glyph-name="Atilde" unicode="&#xc3;" horiz-adv-x="656" 
d="M542 0l-70 161h-285l-73 -161h-110l332 706l316 -706h-110zM229 257h202l-99 226zM452 863l58 -46c-23 -47 -57 -84 -116 -84c-24 0 -38 5 -55 13c-30 14 -29 15 -42 20c-11 4 -25 9 -37 9c-14 0 -37 -4 -51 -42l-59 41c9 16 25 39 42 54c27 23 54 27 70 27s34 -4 49 -9
c7 -3 21 -8 46 -21c12 -6 26 -14 41 -14c22 0 44 17 54 52z" />
    <glyph glyph-name="Adieresis" unicode="&#xc4;" horiz-adv-x="656" 
d="M542 0l-70 161h-285l-73 -161h-110l332 706l316 -706h-110zM229 257h202l-99 226zM170 795c0 35 27 62 62 62s62 -27 62 -62s-27 -62 -62 -62s-62 27 -62 62zM366 795c0 35 27 62 62 62s62 -27 62 -62s-27 -62 -62 -62s-62 27 -62 62z" />
    <glyph glyph-name="Aring" unicode="&#xc5;" horiz-adv-x="656" 
d="M542 0l-70 161h-285l-73 -161h-110l332 706l316 -706h-110zM229 257h202l-99 226zM237 823c0 55 45 97 97 97c54 0 97 -43 97 -97c0 -52 -42 -97 -97 -97c-53 0 -97 44 -97 97zM291 823c0 -24 19 -43 43 -43s43 19 43 43s-19 43 -43 43s-43 -19 -43 -43z" />
    <glyph glyph-name="AE" unicode="&#xc6;" horiz-adv-x="926" 
d="M546 0l-70 159h-283l-73 -159h-110l320 667h295l42 -96h-265l70 -159h258l42 -96h-258l95 -220h265l42 -96h-370zM238 255h198l-95 217z" />
    <glyph glyph-name="Ccedilla" unicode="&#xc7;" horiz-adv-x="620" 
d="M574 631v-120c-74 67 -143 74 -181 74c-145 0 -243 -107 -243 -254c0 -141 102 -250 244 -250c80 0 142 41 180 77v-121c-67 -40 -137 -50 -183 -50c-121 0 -197 55 -236 92c-78 73 -107 158 -107 252c0 123 51 208 107 261c69 65 149 87 241 87c61 0 120 -11 178 -48z
M350 -53l86 -38l-112 -133l-64 32z" />
    <glyph glyph-name="Egrave" unicode="&#xc8;" 
d="M448 667v-96h-266v-169h258v-96h-258v-210h266v-96h-368v667h368zM286 727l-176 119l86 60l138 -139z" />
    <glyph glyph-name="Eacute" unicode="&#xc9;" 
d="M448 667v-96h-266v-169h258v-96h-258v-210h266v-96h-368v667h368zM234 727l-48 40l138 139l86 -60z" />
    <glyph glyph-name="Ecircumflex" unicode="&#xca;" 
d="M448 667v-96h-266v-169h258v-96h-258v-210h266v-96h-368v667h368zM270 812l-99 -82l-66 56l165 134l165 -134l-66 -56z" />
    <glyph glyph-name="Edieresis" unicode="&#xcb;" 
d="M448 667v-96h-266v-169h258v-96h-258v-210h266v-96h-368v667h368zM110 795c0 35 27 62 62 62s62 -27 62 -62s-27 -62 -62 -62s-62 27 -62 62zM306 795c0 35 27 62 62 62s62 -27 62 -62s-27 -62 -62 -62s-62 27 -62 62z" />
    <glyph glyph-name="Igrave" unicode="&#xcc;" horiz-adv-x="262" 
d="M80 667h102v-667h-102v667zM129 713l-139 161l98 35l98 -169z" />
    <glyph glyph-name="Iacute" unicode="&#xcd;" horiz-adv-x="262" 
d="M80 667h102v-667h-102v667zM174 909l98 -35l-139 -161l-57 27z" />
    <glyph glyph-name="Icircumflex" unicode="&#xce;" horiz-adv-x="262" 
d="M80 667h102v-667h-102v667zM131 812l-79 -77l-59 49l138 131l138 -131l-59 -49z" />
    <glyph glyph-name="Idieresis" unicode="&#xcf;" horiz-adv-x="262" 
d="M80 667h102v-667h-102v667zM14 795c0 30 23 56 50 56c26 0 51 -26 51 -56s-25 -56 -51 -56c-27 0 -50 26 -50 56zM148 795c0 30 23 56 50 56s50 -26 50 -56s-23 -56 -50 -56s-50 26 -50 56z" />
    <glyph glyph-name="Eth" unicode="&#xd0;" horiz-adv-x="644" 
d="M80 667h140c93 0 174 -10 248 -65c81 -61 128 -158 128 -269c0 -93 -32 -195 -134 -269c-82 -60 -146 -64 -244 -64h-138v324h-80v86h80v257zM182 571v-161h140v-86h-140v-228h44c50 0 119 4 177 47c46 35 91 99 91 190c0 88 -42 157 -90 192c-58 42 -129 46 -178 46h-44
z" />
    <glyph glyph-name="Ntilde" unicode="&#xd1;" horiz-adv-x="746" 
d="M182 0h-102v712l484 -507v462h102v-708l-484 507v-466zM502 863l58 -46c-23 -47 -57 -84 -116 -84c-24 0 -38 5 -55 13c-30 14 -29 15 -42 20c-11 4 -25 9 -37 9c-14 0 -37 -4 -51 -42l-59 41c9 16 25 39 42 54c27 23 54 27 70 27s34 -4 49 -9c7 -3 21 -8 46 -21
c12 -6 26 -14 41 -14c22 0 44 17 54 52z" />
    <glyph glyph-name="Ograve" unicode="&#xd2;" horiz-adv-x="790" 
d="M395 679c200 0 347 -150 347 -346s-147 -346 -347 -346s-347 150 -347 346s147 346 347 346zM395 81c143 0 245 104 245 252s-102 252 -245 252s-245 -104 -245 -252s102 -252 245 -252zM436 727l-176 119l86 60l138 -139z" />
    <glyph glyph-name="Oacute" unicode="&#xd3;" horiz-adv-x="790" 
d="M395 679c200 0 347 -150 347 -346s-147 -346 -347 -346s-347 150 -347 346s147 346 347 346zM395 81c143 0 245 104 245 252s-102 252 -245 252s-245 -104 -245 -252s102 -252 245 -252zM354 727l-48 40l138 139l86 -60z" />
    <glyph glyph-name="Ocircumflex" unicode="&#xd4;" horiz-adv-x="790" 
d="M395 679c200 0 347 -150 347 -346s-147 -346 -347 -346s-347 150 -347 346s147 346 347 346zM395 81c143 0 245 104 245 252s-102 252 -245 252s-245 -104 -245 -252s102 -252 245 -252zM395 812l-99 -82l-66 56l165 134l165 -134l-66 -56z" />
    <glyph glyph-name="Otilde" unicode="&#xd5;" horiz-adv-x="790" 
d="M395 679c200 0 347 -150 347 -346s-147 -346 -347 -346s-347 150 -347 346s147 346 347 346zM395 81c143 0 245 104 245 252s-102 252 -245 252s-245 -104 -245 -252s102 -252 245 -252zM517 863l58 -46c-23 -47 -57 -84 -116 -84c-24 0 -38 5 -55 13
c-30 14 -29 15 -42 20c-11 4 -25 9 -37 9c-14 0 -37 -4 -51 -42l-59 41c9 16 25 39 42 54c27 23 54 27 70 27s34 -4 49 -9c7 -3 21 -8 46 -21c12 -6 26 -14 41 -14c22 0 44 17 54 52z" />
    <glyph glyph-name="Odieresis" unicode="&#xd6;" horiz-adv-x="790" 
d="M395 679c200 0 347 -150 347 -346s-147 -346 -347 -346s-347 150 -347 346s147 346 347 346zM395 81c143 0 245 104 245 252s-102 252 -245 252s-245 -104 -245 -252s102 -252 245 -252zM235 795c0 35 27 62 62 62s62 -27 62 -62s-27 -62 -62 -62s-62 27 -62 62zM431 795
c0 35 27 62 62 62s62 -27 62 -62s-27 -62 -62 -62s-62 27 -62 62z" />
    <glyph glyph-name="multiply" unicode="&#xd7;" 
d="M44 193l142 143l-142 143l63 63l143 -142l143 142l63 -63l-142 -143l142 -143l-63 -63l-143 142l-143 -142z" />
    <glyph glyph-name="Oslash" unicode="&#xd8;" horiz-adv-x="790" 
d="M23 27l94 93c-52 71 -69 147 -69 213c0 196 148 346 347 346c110 0 177 -40 214 -69l93 94l57 -57l-93 -94c25 -30 76 -101 76 -220c0 -196 -147 -346 -347 -346c-108 0 -178 39 -222 75l-93 -92zM594 488l-349 -358c27 -21 73 -49 150 -49c143 0 245 104 245 252
c0 81 -26 127 -46 155zM190 188l346 355c-27 19 -71 42 -141 42c-143 0 -245 -104 -245 -252c0 -75 21 -118 40 -145z" />
    <glyph glyph-name="Ugrave" unicode="&#xd9;" horiz-adv-x="654" 
d="M80 667h102v-402c0 -36 1 -80 21 -115c20 -34 65 -69 124 -69s104 35 124 69c20 35 21 79 21 115v402h102v-429c0 -53 -11 -117 -62 -173c-35 -38 -94 -78 -185 -78s-150 40 -185 78c-51 56 -62 120 -62 173v429zM343 727l-176 119l86 60l138 -139z" />
    <glyph glyph-name="Uacute" unicode="&#xda;" horiz-adv-x="654" 
d="M80 667h102v-402c0 -36 1 -80 21 -115c20 -34 65 -69 124 -69s104 35 124 69c20 35 21 79 21 115v402h102v-429c0 -53 -11 -117 -62 -173c-35 -38 -94 -78 -185 -78s-150 40 -185 78c-51 56 -62 120 -62 173v429zM311 727l-48 40l138 139l86 -60z" />
    <glyph glyph-name="Ucircumflex" unicode="&#xdb;" horiz-adv-x="654" 
d="M80 667h102v-402c0 -36 1 -80 21 -115c20 -34 65 -69 124 -69s104 35 124 69c20 35 21 79 21 115v402h102v-429c0 -53 -11 -117 -62 -173c-35 -38 -94 -78 -185 -78s-150 40 -185 78c-51 56 -62 120 -62 173v429zM327 812l-99 -82l-66 56l165 134l165 -134l-66 -56z" />
    <glyph glyph-name="Udieresis" unicode="&#xdc;" horiz-adv-x="654" 
d="M80 667h102v-402c0 -36 1 -80 21 -115c20 -34 65 -69 124 -69s104 35 124 69c20 35 21 79 21 115v402h102v-429c0 -53 -11 -117 -62 -173c-35 -38 -94 -78 -185 -78s-150 40 -185 78c-51 56 -62 120 -62 173v429zM167 795c0 35 27 62 62 62s62 -27 62 -62
s-27 -62 -62 -62s-62 27 -62 62zM363 795c0 35 27 62 62 62s62 -27 62 -62s-27 -62 -62 -62s-62 27 -62 62z" />
    <glyph glyph-name="Yacute" unicode="&#xdd;" horiz-adv-x="540" 
d="M219 0v288l-219 379h116l154 -267l154 267h116l-219 -379v-288h-102zM254 727l-48 40l138 139l86 -60z" />
    <glyph glyph-name="Thorn" unicode="&#xde;" horiz-adv-x="480" 
d="M80 667h102v-100h45c41 0 98 -4 146 -36c56 -37 83 -101 83 -162c0 -39 -10 -99 -65 -146c-53 -45 -114 -52 -163 -52h-46v-171h-102v667zM182 473v-208h46c88 0 130 43 130 105c0 37 -15 103 -131 103h-45z" />
    <glyph glyph-name="germandbls" unicode="&#xdf;" horiz-adv-x="568" 
d="M176 0h-98v334h-72v87h72v106c0 73 21 117 41 144s66 70 157 70c78 0 123 -31 147 -55s51 -67 51 -132c0 -30 -6 -60 -23 -86c-12 -18 -30 -35 -48 -47c42 -19 72 -47 90 -76c19 -29 33 -69 33 -119c0 -87 -40 -144 -76 -175c-45 -40 -113 -65 -189 -65v94
c50 0 99 18 130 51c25 26 35 57 35 95c0 52 -22 86 -53 108c-30 21 -76 32 -112 32v89h13c18 0 50 2 77 30c17 17 27 43 27 75c0 30 -14 54 -29 68c-19 17 -48 25 -71 25c-28 0 -58 -11 -75 -31c-20 -23 -27 -62 -27 -90v-532z" />
    <glyph glyph-name="agrave" unicode="&#xe0;" horiz-adv-x="530" 
d="M370 372v49h98v-421h-98v44c-43 -50 -96 -57 -126 -57c-130 0 -204 108 -204 224c0 137 94 221 205 221c31 0 85 -8 125 -60zM257 344c-71 0 -117 -60 -117 -135c0 -73 46 -134 117 -134c62 0 119 45 119 133c0 92 -57 136 -119 136zM266 485l-156 144l90 46l120 -156z
" />
    <glyph glyph-name="aacute" unicode="&#xe1;" horiz-adv-x="530" 
d="M370 372v49h98v-421h-98v44c-43 -50 -96 -57 -126 -57c-130 0 -204 108 -204 224c0 137 94 221 205 221c31 0 85 -8 125 -60zM257 344c-71 0 -117 -60 -117 -135c0 -73 46 -134 117 -134c62 0 119 45 119 133c0 92 -57 136 -119 136zM305 675l90 -46l-156 -144l-54 34z
" />
    <glyph glyph-name="acircumflex" unicode="&#xe2;" horiz-adv-x="530" 
d="M370 372v49h98v-421h-98v44c-43 -50 -96 -57 -126 -57c-130 0 -204 108 -204 224c0 137 94 221 205 221c31 0 85 -8 125 -60zM257 344c-71 0 -117 -60 -117 -135c0 -73 46 -134 117 -134c62 0 119 45 119 133c0 92 -57 136 -119 136zM250 571l-88 -86l-66 52l154 138
l154 -138l-66 -52z" />
    <glyph glyph-name="atilde" unicode="&#xe3;" horiz-adv-x="530" 
d="M370 372v49h98v-421h-98v44c-43 -50 -96 -57 -126 -57c-130 0 -204 108 -204 224c0 137 94 221 205 221c31 0 85 -8 125 -60zM257 344c-71 0 -117 -60 -117 -135c0 -73 46 -134 117 -134c62 0 119 45 119 133c0 92 -57 136 -119 136zM372 622l58 -46
c-16 -35 -50 -86 -116 -86c-25 0 -37 7 -55 16c-27 14 -33 18 -42 22c-11 5 -25 10 -37 10c-34 0 -47 -34 -51 -46l-59 41c9 16 25 39 42 54c24 20 49 27 70 27c17 0 33 -4 49 -10s31 -14 46 -23c13 -8 25 -15 41 -15c36 0 50 39 54 56z" />
    <glyph glyph-name="adieresis" unicode="&#xe4;" horiz-adv-x="530" 
d="M370 372v49h98v-421h-98v44c-43 -50 -96 -57 -126 -57c-130 0 -204 108 -204 224c0 137 94 221 205 221c31 0 85 -8 125 -60zM257 344c-71 0 -117 -60 -117 -135c0 -73 46 -134 117 -134c62 0 119 45 119 133c0 92 -57 136 -119 136zM98 569c0 35 27 62 62 62
s62 -27 62 -62s-27 -62 -62 -62s-62 27 -62 62zM278 569c0 35 27 62 62 62s62 -27 62 -62s-27 -62 -62 -62s-62 27 -62 62z" />
    <glyph glyph-name="aring" unicode="&#xe5;" horiz-adv-x="530" 
d="M370 372v49h98v-421h-98v44c-43 -50 -96 -57 -126 -57c-130 0 -204 108 -204 224c0 137 94 221 205 221c31 0 85 -8 125 -60zM257 344c-71 0 -117 -60 -117 -135c0 -73 46 -134 117 -134c62 0 119 45 119 133c0 92 -57 136 -119 136zM156 579c0 51 43 94 94 94
s94 -43 94 -94s-43 -94 -94 -94s-94 43 -94 94zM207 579c0 -24 19 -43 43 -43s43 19 43 43s-19 43 -43 43s-43 -19 -43 -43z" />
    <glyph glyph-name="ae" unicode="&#xe6;" horiz-adv-x="756" 
d="M99 328v91c48 11 83 13 119 13c28 0 58 -2 87 -13c30 -11 49 -29 63 -47c15 18 32 32 58 43c31 14 59 17 87 17c50 0 102 -11 144 -55c54 -57 59 -134 59 -178v-12h-302c2 -30 15 -64 36 -85c23 -23 51 -27 75 -27c27 0 47 6 67 21c17 13 30 30 39 46l82 -46
c-18 -32 -44 -60 -71 -77c-33 -21 -79 -32 -126 -32c-24 0 -57 3 -88 18c-32 15 -50 36 -60 50c-16 -19 -41 -40 -68 -52c-33 -14 -74 -16 -89 -16c-47 0 -91 8 -129 45c-30 29 -42 62 -42 96c0 45 19 78 40 98c32 31 82 45 128 45c33 0 71 -7 108 -28c0 33 -10 60 -28 76
c-24 21 -59 25 -86 25c-32 0 -62 -4 -103 -16zM220 187c-21 0 -49 -3 -69 -21c-13 -12 -17 -25 -17 -37c0 -13 7 -28 20 -39c11 -9 31 -19 66 -19c32 0 52 9 63 16c27 17 27 40 27 44c0 10 -5 29 -31 43c-19 10 -37 13 -59 13zM421 267h195c-4 23 -15 43 -30 57
c-22 20 -47 24 -66 24c-30 0 -51 -10 -69 -27c-8 -8 -23 -26 -30 -54z" />
    <glyph glyph-name="ccedilla" unicode="&#xe7;" horiz-adv-x="420" 
d="M388 402v-110c-45 44 -89 52 -119 52c-46 0 -75 -19 -93 -37s-36 -50 -36 -97c0 -49 19 -82 38 -101c22 -21 53 -34 89 -34c40 0 87 16 121 54v-109c-24 -15 -63 -33 -128 -33c-70 0 -120 20 -160 62c-30 31 -60 81 -60 158c0 79 33 132 64 163c33 33 86 62 169 62
c32 0 70 -5 115 -30zM218 -53l82 -32l-102 -134l-64 32z" />
    <glyph glyph-name="egrave" unicode="&#xe8;" horiz-adv-x="482" 
d="M357 142l82 -46c-18 -32 -44 -60 -71 -77c-34 -22 -79 -32 -124 -32c-56 0 -102 14 -142 54s-62 98 -62 161c0 65 23 128 67 173c35 35 81 57 141 57c67 0 110 -29 135 -55c54 -56 59 -134 59 -178v-12h-302c2 -30 15 -64 36 -85c23 -23 51 -27 75 -27c27 0 47 6 67 21
c17 13 30 30 39 46zM147 267h195c-4 23 -15 43 -30 57c-13 12 -34 24 -66 24c-34 0 -56 -14 -69 -27c-14 -13 -25 -33 -30 -54zM271 485l-156 144l90 46l120 -156z" />
    <glyph glyph-name="eacute" unicode="&#xe9;" horiz-adv-x="482" 
d="M357 142l82 -46c-18 -32 -44 -60 -71 -77c-34 -22 -79 -32 -124 -32c-56 0 -102 14 -142 54s-62 98 -62 161c0 65 23 128 67 173c35 35 81 57 141 57c67 0 110 -29 135 -55c54 -56 59 -134 59 -178v-12h-302c2 -30 15 -64 36 -85c23 -23 51 -27 75 -27c27 0 47 6 67 21
c17 13 30 30 39 46zM147 267h195c-4 23 -15 43 -30 57c-13 12 -34 24 -66 24c-34 0 -56 -14 -69 -27c-14 -13 -25 -33 -30 -54zM285 675l90 -46l-156 -144l-54 34z" />
    <glyph glyph-name="ecircumflex" unicode="&#xea;" horiz-adv-x="482" 
d="M357 142l82 -46c-18 -32 -44 -60 -71 -77c-34 -22 -79 -32 -124 -32c-56 0 -102 14 -142 54s-62 98 -62 161c0 65 23 128 67 173c35 35 81 57 141 57c67 0 110 -29 135 -55c54 -56 59 -134 59 -178v-12h-302c2 -30 15 -64 36 -85c23 -23 51 -27 75 -27c27 0 47 6 67 21
c17 13 30 30 39 46zM147 267h195c-4 23 -15 43 -30 57c-13 12 -34 24 -66 24c-34 0 -56 -14 -69 -27c-14 -13 -25 -33 -30 -54zM236 571l-88 -86l-66 52l154 138l154 -138l-66 -52z" />
    <glyph glyph-name="edieresis" unicode="&#xeb;" horiz-adv-x="482" 
d="M357 142l82 -46c-18 -32 -44 -60 -71 -77c-34 -22 -79 -32 -124 -32c-56 0 -102 14 -142 54s-62 98 -62 161c0 65 23 128 67 173c35 35 81 57 141 57c67 0 110 -29 135 -55c54 -56 59 -134 59 -178v-12h-302c2 -30 15 -64 36 -85c23 -23 51 -27 75 -27c27 0 47 6 67 21
c17 13 30 30 39 46zM147 267h195c-4 23 -15 43 -30 57c-13 12 -34 24 -66 24c-34 0 -56 -14 -69 -27c-14 -13 -25 -33 -30 -54zM92 569c0 35 27 62 62 62s62 -27 62 -62s-27 -62 -62 -62s-62 27 -62 62zM272 569c0 35 27 62 62 62s62 -27 62 -62s-27 -62 -62 -62
s-62 27 -62 62z" />
    <glyph glyph-name="igrave" unicode="&#xec;" horiz-adv-x="222" 
d="M62 421h98v-421h-98v421zM110 475l-115 178l101 23l74 -183z" />
    <glyph glyph-name="iacute" unicode="&#xed;" horiz-adv-x="222" 
d="M62 421h98v-421h-98v421zM126 676l101 -23l-115 -178l-60 18z" />
    <glyph glyph-name="icircumflex" unicode="&#xee;" horiz-adv-x="222" 
d="M62 421h98v-421h-98v421zM111 568l-70 -73l-54 46l124 125l124 -125l-54 -46z" />
    <glyph glyph-name="idieresis" unicode="&#xef;" horiz-adv-x="222" 
d="M62 421h98v-421h-98v421zM-41 569c0 35 27 62 62 62s62 -27 62 -62s-27 -62 -62 -62s-62 27 -62 62zM139 569c0 35 27 62 62 62s62 -27 62 -62s-27 -62 -62 -62s-62 27 -62 62z" />
    <glyph glyph-name="eth" unicode="&#xf0;" horiz-adv-x="530" 
d="M85 601l29 72c67 -8 137 -28 203 -69l131 43l20 -61l-98 -30c34 -27 56 -56 75 -94c26 -51 45 -117 45 -213c0 -49 -5 -112 -37 -165c-20 -33 -71 -97 -186 -97c-68 0 -119 21 -159 59c-31 30 -68 84 -68 168c0 76 31 127 64 160c48 48 101 58 150 58c30 0 76 -6 123 -47
c-21 80 -81 125 -101 139l-178 -59l-20 60l126 41c-40 21 -80 31 -119 35zM265 75c34 0 67 12 89 34s36 59 36 100c0 39 -12 77 -35 100c-22 23 -55 35 -90 35c-36 0 -66 -13 -86 -32c-25 -24 -39 -62 -39 -103c0 -40 14 -77 36 -100c14 -15 42 -34 89 -34z" />
    <glyph glyph-name="ntilde" unicode="&#xf1;" horiz-adv-x="485" 
d="M61 0v421h98v-39c42 47 90 50 114 50c78 0 111 -39 124 -57c16 -23 26 -52 26 -117v-258h-98v234c0 107 -40 110 -77 110c-44 0 -89 -6 -89 -142v-202h-98zM365 622l58 -46c-16 -35 -50 -86 -116 -86c-25 0 -37 7 -55 16c-27 14 -33 18 -42 22c-11 5 -25 10 -37 10
c-34 0 -47 -34 -51 -46l-59 41c9 16 25 39 42 54c24 20 49 27 70 27c17 0 33 -4 49 -10s31 -14 46 -23c13 -8 25 -15 41 -15c36 0 50 39 54 56z" />
    <glyph glyph-name="ograve" unicode="&#xf2;" horiz-adv-x="530" 
d="M265 432c127 0 225 -92 225 -222c0 -129 -98 -223 -225 -223s-225 94 -225 223c0 130 98 222 225 222zM265 75c77 0 125 53 125 134c0 96 -63 135 -125 135s-125 -39 -125 -135c0 -81 48 -134 125 -134zM271 485l-156 144l90 46l120 -156z" />
    <glyph glyph-name="oacute" unicode="&#xf3;" horiz-adv-x="530" 
d="M265 432c127 0 225 -92 225 -222c0 -129 -98 -223 -225 -223s-225 94 -225 223c0 130 98 222 225 222zM265 75c77 0 125 53 125 134c0 96 -63 135 -125 135s-125 -39 -125 -135c0 -81 48 -134 125 -134zM320 675l90 -46l-156 -144l-54 34z" />
    <glyph glyph-name="ocircumflex" unicode="&#xf4;" horiz-adv-x="530" 
d="M265 432c127 0 225 -92 225 -222c0 -129 -98 -223 -225 -223s-225 94 -225 223c0 130 98 222 225 222zM265 75c77 0 125 53 125 134c0 96 -63 135 -125 135s-125 -39 -125 -135c0 -81 48 -134 125 -134zM265 571l-88 -86l-66 52l154 138l154 -138l-66 -52z" />
    <glyph glyph-name="otilde" unicode="&#xf5;" horiz-adv-x="530" 
d="M265 432c127 0 225 -92 225 -222c0 -129 -98 -223 -225 -223s-225 94 -225 223c0 130 98 222 225 222zM265 75c77 0 125 53 125 134c0 96 -63 135 -125 135s-125 -39 -125 -135c0 -81 48 -134 125 -134zM387 622l58 -46c-16 -35 -50 -86 -116 -86c-25 0 -37 7 -55 16
c-27 14 -33 18 -42 22c-11 5 -25 10 -37 10c-34 0 -47 -34 -51 -46l-59 41c9 16 25 39 42 54c24 20 49 27 70 27c17 0 33 -4 49 -10s31 -14 46 -23c13 -8 25 -15 41 -15c36 0 50 39 54 56z" />
    <glyph glyph-name="odieresis" unicode="&#xf6;" horiz-adv-x="530" 
d="M265 432c127 0 225 -92 225 -222c0 -129 -98 -223 -225 -223s-225 94 -225 223c0 130 98 222 225 222zM265 75c77 0 125 53 125 134c0 96 -63 135 -125 135s-125 -39 -125 -135c0 -81 48 -134 125 -134zM113 569c0 35 27 62 62 62s62 -27 62 -62s-27 -62 -62 -62
s-62 27 -62 62zM293 569c0 35 27 62 62 62s62 -27 62 -62s-27 -62 -62 -62s-62 27 -62 62z" />
    <glyph glyph-name="divide" unicode="&#xf7;" 
d="M190 513c0 33 27 60 60 60s60 -27 60 -60s-27 -60 -60 -60s-60 27 -60 60zM190 159c0 33 27 60 60 60s60 -27 60 -60s-27 -60 -60 -60s-60 27 -60 60zM33 291v90h434v-90h-434z" />
    <glyph glyph-name="oslash" unicode="&#xf8;" horiz-adv-x="530" 
d="M10 7l71 73c-19 25 -41 65 -41 130c0 130 97 222 225 222c72 0 111 -24 132 -41l71 70l44 -46l-68 -66c20 -26 46 -70 46 -139c0 -129 -98 -223 -225 -223c-71 0 -113 25 -138 46l-67 -72zM374 281l-181 -186c19 -13 49 -20 72 -20c62 0 125 38 125 134
c0 26 -4 48 -16 72zM152 145l177 184c-16 8 -36 15 -64 15c-62 0 -125 -39 -125 -135c0 -25 5 -45 12 -64z" />
    <glyph glyph-name="ugrave" unicode="&#xf9;" horiz-adv-x="484" 
d="M62 421h98v-241c0 -25 1 -54 18 -76c13 -17 36 -29 64 -29s51 12 64 29c17 22 18 51 18 76v241h98v-244c0 -54 -6 -99 -45 -138c-38 -38 -90 -52 -137 -52c-43 0 -95 13 -133 52c-39 39 -45 84 -45 138v244zM241 485l-156 144l90 46l120 -156z" />
    <glyph glyph-name="uacute" unicode="&#xfa;" horiz-adv-x="484" 
d="M62 421h98v-241c0 -25 1 -54 18 -76c13 -17 36 -29 64 -29s51 12 64 29c17 22 18 51 18 76v241h98v-244c0 -54 -6 -99 -45 -138c-38 -38 -90 -52 -137 -52c-43 0 -95 13 -133 52c-39 39 -45 84 -45 138v244zM305 675l90 -46l-156 -144l-54 34z" />
    <glyph glyph-name="ucircumflex" unicode="&#xfb;" horiz-adv-x="484" 
d="M62 421h98v-241c0 -25 1 -54 18 -76c13 -17 36 -29 64 -29s51 12 64 29c17 22 18 51 18 76v241h98v-244c0 -54 -6 -99 -45 -138c-38 -38 -90 -52 -137 -52c-43 0 -95 13 -133 52c-39 39 -45 84 -45 138v244zM242 571l-88 -86l-66 52l154 138l154 -138l-66 -52z" />
    <glyph glyph-name="udieresis" unicode="&#xfc;" horiz-adv-x="484" 
d="M62 421h98v-241c0 -25 1 -54 18 -76c13 -17 36 -29 64 -29s51 12 64 29c17 22 18 51 18 76v241h98v-244c0 -54 -6 -99 -45 -138c-38 -38 -90 -52 -137 -52c-43 0 -95 13 -133 52c-39 39 -45 84 -45 138v244zM90 569c0 35 27 62 62 62s62 -27 62 -62s-27 -62 -62 -62
s-62 27 -62 62zM270 569c0 35 27 62 62 62s62 -27 62 -62s-27 -62 -62 -62s-62 27 -62 62z" />
    <glyph glyph-name="yacute" unicode="&#xfd;" horiz-adv-x="482" 
d="M31 -229l155 295l-180 355h118l120 -246l122 246h110l-335 -650h-110zM316 675l90 -46l-156 -144l-54 34z" />
    <glyph glyph-name="thorn" unicode="&#xfe;" horiz-adv-x="530" 
d="M160 47v-276h-98v958h98v-354c36 43 83 57 125 57c111 0 205 -84 205 -221c0 -117 -74 -224 -204 -224c-30 0 -83 7 -126 60zM273 75c71 0 117 61 117 134c0 75 -46 135 -117 135c-62 0 -119 -44 -119 -136c0 -88 57 -133 119 -133z" />
    <glyph glyph-name="ydieresis" unicode="&#xff;" horiz-adv-x="482" 
d="M31 -229l155 295l-180 355h118l120 -246l122 246h110l-335 -650h-110zM89 569c0 35 27 62 62 62s62 -27 62 -62s-27 -62 -62 -62s-62 27 -62 62zM269 569c0 35 27 62 62 62s62 -27 62 -62s-27 -62 -62 -62s-62 27 -62 62z" />
    <glyph glyph-name="Amacron" unicode="&#x100;" horiz-adv-x="656" 
d="M542 0l-70 161h-285l-73 -161h-110l332 706l316 -706h-110zM229 257h202l-99 226zM154 733v80h360v-80h-360z" />
    <glyph glyph-name="amacron" unicode="&#x101;" horiz-adv-x="530" 
d="M370 372v49h98v-421h-98v44c-43 -50 -96 -57 -126 -57c-130 0 -204 108 -204 224c0 137 94 221 205 221c31 0 85 -8 125 -60zM257 344c-71 0 -117 -60 -117 -135c0 -73 46 -134 117 -134c62 0 119 45 119 133c0 92 -57 136 -119 136zM85 508v78h330v-78h-330z" />
    <glyph glyph-name="Abreve" unicode="&#x102;" horiz-adv-x="656" 
d="M542 0l-70 161h-285l-73 -161h-110l332 706l316 -706h-110zM229 257h202l-99 226zM422 874h82c-6 -31 -21 -63 -40 -86s-61 -58 -130 -58s-111 35 -130 58s-34 55 -40 86h82c6 -21 19 -39 34 -49c19 -13 38 -15 54 -15s35 2 54 15c15 10 28 28 34 49z" />
    <glyph glyph-name="abreve" unicode="&#x103;" horiz-adv-x="530" 
d="M370 372v49h98v-421h-98v44c-43 -50 -96 -57 -126 -57c-130 0 -204 108 -204 224c0 137 94 221 205 221c31 0 85 -8 125 -60zM257 344c-71 0 -117 -60 -117 -135c0 -73 46 -134 117 -134c62 0 119 45 119 133c0 92 -57 136 -119 136zM333 638h79c-10 -47 -31 -78 -38 -85
c-36 -45 -87 -50 -122 -50c-63 0 -100 20 -125 49c-18 22 -33 54 -39 86h79c5 -17 15 -37 30 -49c18 -15 36 -16 52 -16s36 2 53 15c13 10 26 30 31 50z" />
    <glyph glyph-name="Aogonek" unicode="&#x104;" horiz-adv-x="656" 
d="M334 709l318 -709h-32c-16 -9 -35 -22 -47 -34c-13 -12 -25 -29 -25 -50c0 -13 6 -20 10 -24c9 -8 24 -9 33 -9c12 0 30 2 49 9l-9 -70c-22 -11 -44 -15 -62 -15c-28 0 -59 9 -79 28c-13 13 -24 33 -24 60c0 25 10 46 26 64c12 14 32 30 50 41l-70 161h-285l-73 -161
h-110zM229 257h202l-99 226z" />
    <glyph glyph-name="aogonek" unicode="&#x105;" horiz-adv-x="530" 
d="M370 372v49h98v-421h-25c-16 -9 -38 -25 -51 -38c-17 -18 -21 -34 -21 -45c0 -10 3 -18 11 -25c9 -8 19 -9 30 -9c16 0 33 2 51 9l-9 -62c-26 -17 -48 -19 -64 -19c-34 0 -58 12 -75 29c-16 16 -22 35 -22 55c0 27 12 48 26 64c13 15 32 30 51 41v44
c-43 -50 -96 -57 -126 -57c-67 0 -113 29 -141 57c-37 38 -63 96 -63 167c0 84 35 138 67 168c31 30 74 53 135 53c32 0 87 -8 128 -60zM257 344c-40 0 -65 -18 -80 -34c-25 -27 -37 -65 -37 -101s14 -77 37 -101c18 -19 48 -33 82 -33s63 14 82 34c21 22 35 58 35 102
c0 41 -12 71 -36 100c-15 14 -42 33 -83 33z" />
    <glyph glyph-name="Cacute" unicode="&#x106;" horiz-adv-x="620" 
d="M574 631v-120c-74 67 -143 74 -181 74c-145 0 -243 -107 -243 -254c0 -141 102 -250 244 -250c80 0 142 41 180 77v-121c-67 -40 -137 -50 -183 -50c-121 0 -197 55 -236 92c-78 73 -107 158 -107 252c0 123 51 208 107 261c69 65 149 87 241 87c61 0 120 -11 178 -48z
M364 727l-48 40l138 139l86 -60z" />
    <glyph glyph-name="cacute" unicode="&#x107;" horiz-adv-x="420" 
d="M388 402v-110c-45 44 -89 52 -119 52c-46 0 -75 -19 -93 -37s-36 -50 -36 -97c0 -49 19 -82 38 -101c22 -21 53 -34 89 -34c40 0 87 16 121 54v-109c-24 -15 -63 -33 -128 -33c-70 0 -120 20 -160 62c-30 31 -60 81 -60 158c0 79 33 132 64 163c33 33 86 62 169 62
c32 0 70 -5 115 -30zM305 675l90 -46l-156 -144l-54 34z" />
    <glyph glyph-name="Ccircumflex" unicode="&#x108;" horiz-adv-x="620" 
d="M574 631v-120c-74 67 -143 74 -181 74c-145 0 -243 -107 -243 -254c0 -141 102 -250 244 -250c80 0 142 41 180 77v-121c-67 -40 -137 -50 -183 -50c-121 0 -197 55 -236 92c-78 73 -107 158 -107 252c0 123 51 208 107 261c69 65 149 87 241 87c61 0 120 -11 178 -48z
M390 812l-99 -82l-66 56l165 134l165 -134l-66 -56z" />
    <glyph glyph-name="ccircumflex" unicode="&#x109;" horiz-adv-x="420" 
d="M388 402v-110c-45 44 -89 52 -119 52c-46 0 -75 -19 -93 -37s-36 -50 -36 -97c0 -49 19 -82 38 -101c22 -21 53 -34 89 -34c40 0 87 16 121 54v-109c-24 -15 -63 -33 -128 -33c-70 0 -120 20 -160 62c-30 31 -60 81 -60 158c0 79 33 132 64 163c33 33 86 62 169 62
c32 0 70 -5 115 -30zM260 571l-88 -86l-66 52l154 138l154 -138l-66 -52z" />
    <glyph glyph-name="Cdotaccent" unicode="&#x10a;" horiz-adv-x="620" 
d="M574 631v-120c-74 67 -143 74 -181 74c-145 0 -243 -107 -243 -254c0 -141 102 -250 244 -250c80 0 142 41 180 77v-121c-67 -40 -137 -50 -183 -50c-121 0 -197 55 -236 92c-78 73 -107 158 -107 252c0 123 51 208 107 261c69 65 149 87 241 87c61 0 120 -11 178 -48z
M322 801c0 38 29 67 67 67s67 -29 67 -67s-29 -67 -67 -67s-67 29 -67 67z" />
    <glyph glyph-name="cdotaccent" unicode="&#x10b;" horiz-adv-x="420" 
d="M388 402v-110c-45 44 -89 52 -119 52c-46 0 -75 -19 -93 -37s-36 -50 -36 -97c0 -49 19 -82 38 -101c22 -21 53 -34 89 -34c40 0 87 16 121 54v-109c-24 -15 -63 -33 -128 -33c-70 0 -120 20 -160 62c-30 31 -60 81 -60 158c0 79 33 132 64 163c33 33 86 62 169 62
c32 0 70 -5 115 -30zM199 550c0 36 29 65 65 65s65 -29 65 -65s-29 -65 -65 -65s-65 29 -65 65z" />
    <glyph glyph-name="Ccaron" unicode="&#x10c;" horiz-adv-x="620" 
d="M574 631v-120c-74 67 -143 74 -181 74c-145 0 -243 -107 -243 -254c0 -141 102 -250 244 -250c80 0 142 41 180 77v-121c-67 -40 -137 -50 -183 -50c-121 0 -197 55 -236 92c-78 73 -107 158 -107 252c0 123 51 208 107 261c69 65 149 87 241 87c61 0 120 -11 178 -48z
M390 838l99 82l66 -56l-165 -134l-165 134l66 56z" />
    <glyph glyph-name="ccaron" unicode="&#x10d;" horiz-adv-x="420" 
d="M388 402v-110c-45 44 -89 52 -119 52c-46 0 -75 -19 -93 -37s-36 -50 -36 -97c0 -49 19 -82 38 -101c22 -21 53 -34 89 -34c40 0 87 16 121 54v-109c-24 -15 -63 -33 -128 -33c-70 0 -120 20 -160 62c-30 31 -60 81 -60 158c0 79 33 132 64 163c33 33 86 62 169 62
c32 0 70 -5 115 -30zM260 589l88 86l66 -52l-154 -138l-154 138l66 52z" />
    <glyph glyph-name="Dcaron" unicode="&#x10e;" horiz-adv-x="644" 
d="M80 667h140c93 0 174 -10 248 -65c81 -61 128 -158 128 -269s-46 -207 -134 -269c-78 -55 -151 -64 -244 -64h-138v667zM182 571v-475h44c50 0 119 4 177 47c46 35 91 99 91 190c0 88 -42 157 -90 192c-58 42 -129 46 -178 46h-44zM250 838l99 82l66 -56l-165 -134
l-165 134l66 56z" />
    <glyph glyph-name="dcaron" unicode="&#x10f;" horiz-adv-x="640" 
d="M370 372v357h98v-729h-98v44c-43 -50 -96 -57 -126 -57c-130 0 -204 108 -204 224c0 137 94 221 205 221c31 0 85 -8 125 -60zM257 344c-71 0 -117 -60 -117 -135c0 -73 46 -134 117 -134c62 0 119 45 119 133c0 92 -57 136 -119 136zM501 478l82 212l88 -34l-104 -206z
" />
    <glyph glyph-name="Dcroat" unicode="&#x110;" horiz-adv-x="644" 
d="M80 667h140c93 0 174 -10 248 -65c81 -61 128 -158 128 -269c0 -93 -32 -195 -134 -269c-82 -60 -146 -64 -244 -64h-138v324h-80v86h80v257zM182 571v-161h140v-86h-140v-228h44c50 0 119 4 177 47c46 35 91 99 91 190c0 88 -42 157 -90 192c-58 42 -129 46 -178 46h-44
z" />
    <glyph glyph-name="dcroat" unicode="&#x111;" horiz-adv-x="530" 
d="M370 372v180h-220v76h220v101h98v-101h72v-76h-72v-552h-98v44c-43 -50 -96 -57 -126 -57c-130 0 -204 108 -204 224c0 137 94 221 205 221c31 0 85 -8 125 -60zM257 344c-71 0 -117 -60 -117 -135c0 -73 46 -134 117 -134c63 0 119 45 119 133c0 96 -59 136 -119 136z
" />
    <glyph glyph-name="Emacron" unicode="&#x112;" 
d="M448 667v-96h-266v-169h258v-96h-258v-210h266v-96h-368v667h368zM80 733v80h360v-80h-360z" />
    <glyph glyph-name="emacron" unicode="&#x113;" horiz-adv-x="482" 
d="M357 142l82 -46c-18 -32 -44 -60 -71 -77c-34 -22 -79 -32 -124 -32c-56 0 -102 14 -142 54s-62 98 -62 161c0 65 23 128 67 173c35 35 81 57 141 57c67 0 110 -29 135 -55c54 -56 59 -134 59 -178v-12h-302c2 -30 15 -64 36 -85c23 -23 51 -27 75 -27c27 0 47 6 67 21
c17 13 30 30 39 46zM147 267h195c-4 23 -15 43 -30 57c-13 12 -34 24 -66 24c-34 0 -56 -14 -69 -27c-14 -13 -25 -33 -30 -54zM79 508v78h330v-78h-330z" />
    <glyph glyph-name="Edotaccent" unicode="&#x116;" 
d="M448 667v-96h-266v-169h258v-96h-258v-210h266v-96h-368v667h368zM203 801c0 38 29 67 67 67s67 -29 67 -67s-29 -67 -67 -67s-67 29 -67 67z" />
    <glyph glyph-name="edotaccent" unicode="&#x117;" horiz-adv-x="482" 
d="M357 142l82 -46c-18 -32 -44 -60 -71 -77c-34 -22 -79 -32 -124 -32c-56 0 -102 14 -142 54s-62 98 -62 161c0 65 23 128 67 173c35 35 81 57 141 57c67 0 110 -29 135 -55c54 -56 59 -134 59 -178v-12h-302c2 -30 15 -64 36 -85c23 -23 51 -27 75 -27c27 0 47 6 67 21
c17 13 30 30 39 46zM147 267h195c-4 23 -15 43 -30 57c-13 12 -34 24 -66 24c-34 0 -56 -14 -69 -27c-14 -13 -25 -33 -30 -54zM179 550c0 36 29 65 65 65s65 -29 65 -65s-29 -65 -65 -65s-65 29 -65 65z" />
    <glyph glyph-name="Eogonek" unicode="&#x118;" 
d="M448 667v-96h-266v-159h258v-96h-258v-220h266v-96h-40c-16 -9 -35 -22 -47 -34c-13 -12 -25 -29 -25 -50c0 -13 6 -20 10 -24c9 -8 24 -9 33 -9c12 0 30 2 49 9l-9 -70c-22 -11 -44 -15 -62 -15c-28 0 -59 9 -79 28c-13 13 -24 33 -24 60c0 25 10 46 26 64
c12 14 32 30 50 41h-250v667h368z" />
    <glyph glyph-name="eogonek" unicode="&#x119;" horiz-adv-x="482" 
d="M357 142l82 -46c-15 -28 -33 -48 -56 -65c-60 -46 -81 -43 -108 -72c-11 -12 -20 -28 -20 -42c0 -10 3 -18 11 -25c9 -8 19 -9 30 -9c16 0 33 2 51 9l-9 -62c-24 -15 -43 -19 -61 -19c-37 0 -63 13 -78 29c-18 19 -22 40 -22 55c0 22 9 40 20 56c9 13 22 25 38 36
c-63 2 -108 29 -133 54c-40 39 -62 99 -62 161c0 64 23 129 67 173c35 35 81 57 141 57c67 0 110 -29 135 -55c54 -56 59 -134 59 -178v-12h-302c2 -30 15 -64 36 -85c23 -23 51 -27 75 -27c27 0 47 6 67 21c17 13 30 30 39 46zM147 267h195c-4 23 -15 43 -30 57
c-13 12 -34 24 -66 24c-34 0 -56 -14 -69 -27c-14 -13 -25 -33 -30 -54z" />
    <glyph glyph-name="Ecaron" unicode="&#x11a;" 
d="M448 667v-96h-266v-169h258v-96h-258v-210h266v-96h-368v667h368zM270 838l99 82l66 -56l-165 -134l-165 134l66 56z" />
    <glyph glyph-name="ecaron" unicode="&#x11b;" horiz-adv-x="482" 
d="M357 142l82 -46c-18 -32 -44 -60 -71 -77c-34 -22 -79 -32 -124 -32c-56 0 -102 14 -142 54s-62 98 -62 161c0 65 23 128 67 173c35 35 81 57 141 57c67 0 110 -29 135 -55c54 -56 59 -134 59 -178v-12h-302c2 -30 15 -64 36 -85c23 -23 51 -27 75 -27c27 0 47 6 67 21
c17 13 30 30 39 46zM147 267h195c-4 23 -15 43 -30 57c-13 12 -34 24 -66 24c-34 0 -56 -14 -69 -27c-14 -13 -25 -33 -30 -54zM244 589l88 86l66 -52l-154 -138l-154 138l66 52z" />
    <glyph glyph-name="Gcircumflex" unicode="&#x11c;" horiz-adv-x="748" 
d="M425 253v94h275v-5c0 -114 -34 -207 -99 -270c-69 -67 -151 -85 -227 -85c-97 0 -166 28 -227 91c-65 67 -99 156 -99 252c0 104 42 194 97 249c57 58 148 100 251 100c60 0 122 -13 174 -42c55 -31 89 -70 108 -100l-81 -57c-20 28 -50 58 -82 76c-37 22 -77 29 -118 29
c-87 0 -143 -36 -176 -69c-44 -44 -71 -115 -71 -187c0 -67 25 -134 69 -181c46 -49 103 -67 167 -67c58 0 106 17 149 59c37 36 52 75 56 113h-166zM394 812l-99 -82l-66 56l165 134l165 -134l-66 -56z" />
    <glyph glyph-name="gcircumflex" unicode="&#x11d;" horiz-adv-x="530" 
d="M370 375v46h98v-387c0 -99 -11 -170 -69 -219c-27 -22 -71 -45 -140 -45c-49 0 -98 12 -138 52c-31 31 -55 80 -62 131h95c4 -23 16 -50 31 -66c12 -13 36 -29 76 -29c41 0 65 16 77 28c32 31 32 75 32 106v55c-45 -57 -100 -60 -128 -60c-54 0 -99 15 -139 57
c-38 40 -63 97 -63 167c0 77 29 130 62 163c42 43 92 58 143 58c42 0 89 -14 125 -57zM257 344c-27 0 -52 -7 -74 -28c-25 -23 -43 -62 -43 -107c0 -42 16 -83 42 -106c18 -16 45 -28 75 -28c31 0 58 9 82 34c29 31 37 67 37 99c0 47 -15 82 -40 106c-24 24 -51 30 -79 30z
M250 571l-88 -86l-66 52l154 138l154 -138l-66 -52z" />
    <glyph glyph-name="Gbreve" unicode="&#x11e;" horiz-adv-x="748" 
d="M425 253v94h275v-5c0 -114 -34 -207 -99 -270c-69 -67 -151 -85 -227 -85c-97 0 -166 28 -227 91c-65 67 -99 156 -99 252c0 104 42 194 97 249c57 58 148 100 251 100c60 0 122 -13 174 -42c55 -31 89 -70 108 -100l-81 -57c-20 28 -50 58 -82 76c-37 22 -77 29 -118 29
c-87 0 -143 -36 -176 -69c-44 -44 -71 -115 -71 -187c0 -67 25 -134 69 -181c46 -49 103 -67 167 -67c58 0 106 17 149 59c37 36 52 75 56 113h-166zM482 874h82c-6 -31 -21 -63 -40 -86s-61 -58 -130 -58s-111 35 -130 58s-34 55 -40 86h82c6 -21 19 -39 34 -49
c19 -13 38 -15 54 -15s35 2 54 15c15 10 28 28 34 49z" />
    <glyph glyph-name="gbreve" unicode="&#x11f;" horiz-adv-x="530" 
d="M370 375v46h98v-387c0 -99 -11 -170 -69 -219c-27 -22 -71 -45 -140 -45c-49 0 -98 12 -138 52c-31 31 -55 80 -62 131h95c4 -23 16 -50 31 -66c12 -13 36 -29 76 -29c41 0 65 16 77 28c32 31 32 75 32 106v55c-45 -57 -100 -60 -128 -60c-54 0 -99 15 -139 57
c-38 40 -63 97 -63 167c0 77 29 130 62 163c42 43 92 58 143 58c42 0 89 -14 125 -57zM257 344c-27 0 -52 -7 -74 -28c-25 -23 -43 -62 -43 -107c0 -42 16 -83 42 -106c18 -16 45 -28 75 -28c31 0 58 9 82 34c29 31 37 67 37 99c0 47 -15 82 -40 106c-24 24 -51 30 -79 30z
M333 638h79c-10 -47 -31 -78 -38 -85c-36 -45 -87 -50 -122 -50c-63 0 -100 20 -125 49c-18 22 -33 54 -39 86h79c5 -17 15 -37 30 -49c18 -15 36 -16 52 -16s36 2 53 15c13 10 26 30 31 50z" />
    <glyph glyph-name="Gdotaccent" unicode="&#x120;" horiz-adv-x="748" 
d="M425 253v94h275v-5c0 -114 -34 -207 -99 -270c-69 -67 -151 -85 -227 -85c-97 0 -166 28 -227 91c-65 67 -99 156 -99 252c0 104 42 194 97 249c57 58 148 100 251 100c60 0 122 -13 174 -42c55 -31 89 -70 108 -100l-81 -57c-20 28 -50 58 -82 76c-37 22 -77 29 -118 29
c-87 0 -143 -36 -176 -69c-44 -44 -71 -115 -71 -187c0 -67 25 -134 69 -181c46 -49 103 -67 167 -67c58 0 106 17 149 59c37 36 52 75 56 113h-166zM328 801c0 38 29 67 67 67s67 -29 67 -67s-29 -67 -67 -67s-67 29 -67 67z" />
    <glyph glyph-name="gdotaccent" unicode="&#x121;" horiz-adv-x="530" 
d="M370 375v46h98v-387c0 -99 -11 -170 -69 -219c-27 -22 -71 -45 -140 -45c-49 0 -98 12 -138 52c-31 31 -55 80 -62 131h95c4 -23 16 -50 31 -66c12 -13 36 -29 76 -29c41 0 65 16 77 28c32 31 32 75 32 106v55c-45 -57 -100 -60 -128 -60c-54 0 -99 15 -139 57
c-38 40 -63 97 -63 167c0 77 29 130 62 163c42 43 92 58 143 58c42 0 89 -14 125 -57zM257 344c-27 0 -52 -7 -74 -28c-25 -23 -43 -62 -43 -107c0 -42 16 -83 42 -106c18 -16 45 -28 75 -28c31 0 58 9 82 34c29 31 37 67 37 99c0 47 -15 82 -40 106c-24 24 -51 30 -79 30z
M186 550c0 36 29 65 65 65s65 -29 65 -65s-29 -65 -65 -65s-65 29 -65 65z" />
    <glyph glyph-name="Gcommaaccent" unicode="&#x122;" horiz-adv-x="748" 
d="M425 253v94h275v-5c0 -114 -34 -207 -99 -270c-69 -67 -151 -85 -227 -85c-97 0 -166 28 -227 91c-65 67 -99 156 -99 252c0 104 42 194 97 249c57 58 148 100 251 100c60 0 122 -13 174 -42c55 -31 89 -70 108 -100l-81 -57c-20 28 -50 58 -82 76c-37 22 -77 29 -118 29
c-87 0 -143 -36 -176 -69c-44 -44 -71 -115 -71 -187c0 -67 25 -134 69 -181c46 -49 103 -67 167 -67c58 0 106 17 149 59c37 36 52 75 56 113h-166zM280 -242l72 192l88 -34l-90 -186z" />
    <glyph glyph-name="gcommaaccent" unicode="&#x123;" horiz-adv-x="530" 
d="M370 375v46h98v-387c0 -99 -11 -170 -69 -219c-27 -22 -71 -45 -140 -45c-49 0 -98 12 -138 52c-31 31 -55 80 -62 131h95c4 -23 16 -50 31 -66c12 -13 36 -29 76 -29c41 0 65 16 77 28c32 31 32 75 32 106v55c-45 -57 -100 -60 -128 -60c-54 0 -99 15 -139 57
c-38 40 -63 97 -63 167c0 77 29 130 62 163c42 43 92 58 143 58c42 0 89 -14 125 -57zM257 344c-27 0 -52 -7 -74 -28c-25 -23 -43 -62 -43 -107c0 -42 16 -83 42 -106c18 -16 45 -28 75 -28c31 0 58 9 82 34c29 31 37 67 37 99c0 47 -15 82 -40 106c-24 24 -51 30 -79 30z
M365 671l-72 -192l-88 34l90 186z" />
    <glyph glyph-name="Hcircumflex" unicode="&#x124;" horiz-adv-x="650" 
d="M182 667v-264h286v264h102v-667h-102v307h-286v-307h-102v667h102zM325 812l-99 -82l-66 56l165 134l165 -134l-66 -56z" />
    <glyph glyph-name="hcircumflex" unicode="&#x125;" horiz-adv-x="486" 
d="M62 0v729h98v-344c42 43 88 47 113 47c77 0 112 -40 124 -57c26 -38 27 -87 27 -117v-258h-98v249c0 25 0 52 -19 73c-11 12 -30 22 -55 22c-33 0 -59 -16 -72 -35c-14 -20 -20 -52 -20 -106v-203h-98zM110 811l-88 -86l-66 52l154 138l154 -138l-66 -52z" />
    <glyph glyph-name="Hbar" unicode="&#x126;" horiz-adv-x="650" 
d="M182 667v-53h286v53h102v-53h60v-84h-60v-530h-102v307h-286v-307h-102v530h-60v84h60v53h102zM468 530h-286v-127h286v127z" />
    <glyph glyph-name="hbar" unicode="&#x127;" horiz-adv-x="486" 
d="M62 0v552h-72v76h72v101h98v-101h200v-76h-200v-167c42 43 88 47 113 47c77 0 112 -40 124 -57c26 -38 27 -87 27 -117v-258h-98v249c0 25 0 52 -19 73c-11 12 -30 22 -55 22c-33 0 -59 -16 -72 -35c-14 -20 -20 -52 -20 -106v-203h-98z" />
    <glyph glyph-name="Imacron" unicode="&#x12a;" horiz-adv-x="262" 
d="M80 667h102v-667h-102v667zM-10 733v80h282v-80h-282z" />
    <glyph glyph-name="imacron" unicode="&#x12b;" horiz-adv-x="222" 
d="M62 421h98v-421h-98v421zM-10 508v78h242v-78h-242z" />
    <glyph glyph-name="Iogonek" unicode="&#x12e;" horiz-adv-x="262" 
d="M80 667h102v-667c-26 -14 -43 -30 -51 -39c-12 -13 -21 -26 -21 -45c0 -30 29 -31 40 -31s25 1 52 7l-9 -70c-22 -10 -47 -15 -65 -15c-54 0 -100 34 -100 88c0 27 12 48 26 64c12 14 32 30 50 41h-24v667z" />
    <glyph glyph-name="iogonek" unicode="&#x12f;" horiz-adv-x="222" 
d="M62 421h98v-421c-26 -14 -43 -30 -51 -39c-12 -13 -21 -26 -21 -45c0 -30 29 -31 40 -31c9 0 28 1 52 7l-9 -62c-20 -14 -48 -19 -62 -19c-53 0 -99 33 -99 84c0 27 12 48 26 64c13 15 32 30 51 41h-25v421zM48 595c0 36 27 63 63 63s63 -27 63 -63s-27 -63 -63 -63
s-63 27 -63 63z" />
    <glyph glyph-name="Idotaccent" unicode="&#x130;" horiz-adv-x="262" 
d="M80 667h102v-667h-102v667zM64 801c0 38 29 67 67 67s67 -29 67 -67s-29 -67 -67 -67s-67 29 -67 67z" />
    <glyph glyph-name="dotlessi" unicode="&#x131;" horiz-adv-x="222" 
d="M62 421h98v-421h-98v421z" />
    <glyph glyph-name="Jcircumflex" unicode="&#x134;" horiz-adv-x="362" 
d="M180 667h102v-432c0 -53 -2 -106 -25 -152c-21 -42 -66 -96 -157 -96c-59 0 -98 21 -118 34l50 86c13 -11 34 -24 70 -24c17 0 50 3 67 45c6 15 11 39 11 107v432zM230 812l-99 -82l-66 56l165 134l165 -134l-66 -56z" />
    <glyph glyph-name="jcircumflex" unicode="&#x135;" horiz-adv-x="222" 
d="M62 421h98v-650h-98v650zM111 571l-88 -86l-66 52l154 138l154 -138l-66 -52z" />
    <glyph glyph-name="Kcommaaccent" unicode="&#x136;" horiz-adv-x="586" 
d="M182 667v-266l258 266h134l-301 -302l303 -365h-136l-238 296l-20 -20v-276h-102v667h102zM190 -242l72 192l88 -34l-90 -186z" />
    <glyph glyph-name="kcommaaccent" unicode="&#x137;" horiz-adv-x="442" 
d="M62 729h98v-449l137 141h130l-181 -175l194 -246h-124l-138 180l-18 -18v-162h-98v729zM130 -242l72 192l88 -34l-90 -186z" />
    <glyph glyph-name="Lacute" unicode="&#x139;" horiz-adv-x="394" 
d="M80 667h102v-571h196v-96h-298v667zM154 727l-48 40l138 139l86 -60z" />
    <glyph glyph-name="lacute" unicode="&#x13a;" horiz-adv-x="222" 
d="M62 729h98v-729h-98v729zM175 935l90 -46l-156 -144l-54 34z" />
    <glyph glyph-name="Lcommaaccent" unicode="&#x13b;" horiz-adv-x="394" 
d="M80 667h102v-571h196v-96h-298v667zM130 -242l72 192l88 -34l-90 -186z" />
    <glyph glyph-name="lcommaaccent" unicode="&#x13c;" horiz-adv-x="222" 
d="M62 729h98v-729h-98v729zM20 -242l72 192l88 -34l-90 -186z" />
    <glyph glyph-name="Lcaron" unicode="&#x13d;" horiz-adv-x="394" 
d="M80 667h102v-571h196v-96h-298v667zM230 468l82 212l88 -34l-104 -206z" />
    <glyph glyph-name="lcaron" unicode="&#x13e;" horiz-adv-x="330" 
d="M62 729h98v-729h-98v729zM190 478l82 212l88 -34l-104 -206z" />
    <glyph glyph-name="Ldot" unicode="&#x13f;" horiz-adv-x="394" 
d="M80 667h102v-571h196v-96h-298v667zM255 334c0 38 29 67 67 67s67 -29 67 -67s-29 -67 -67 -67s-67 29 -67 67z" />
    <glyph glyph-name="ldot" unicode="&#x140;" horiz-adv-x="352" 
d="M62 729h98v-729h-98v729zM222 363c0 36 29 65 65 65s65 -29 65 -65s-29 -65 -65 -65s-65 29 -65 65z" />
    <glyph glyph-name="Lslash" unicode="&#x141;" horiz-adv-x="394" 
d="M80 667h102v-251l120 77v-84l-120 -77v-236h196v-96h-298v287l-80 -51v84l80 51v296z" />
    <glyph glyph-name="lslash" unicode="&#x142;" horiz-adv-x="222" 
d="M62 729h98v-215l62 48v-80l-62 -48v-434h-98v374l-62 -48v80l62 48v275z" />
    <glyph glyph-name="Nacute" unicode="&#x143;" horiz-adv-x="746" 
d="M182 0h-102v712l484 -507v462h102v-708l-484 507v-466zM357 727l-48 40l138 139l86 -60z" />
    <glyph glyph-name="nacute" unicode="&#x144;" horiz-adv-x="485" 
d="M61 0v421h98v-39c42 47 90 50 114 50c78 0 111 -39 124 -57c16 -23 26 -52 26 -117v-258h-98v234c0 107 -40 110 -77 110c-44 0 -89 -6 -89 -142v-202h-98zM318 675l90 -46l-156 -144l-54 34z" />
    <glyph glyph-name="Ncommaaccent" unicode="&#x145;" horiz-adv-x="746" 
d="M182 0h-102v712l484 -507v462h102v-708l-484 507v-466zM280 -242l72 192l88 -34l-90 -186z" />
    <glyph glyph-name="ncommaaccent" unicode="&#x146;" horiz-adv-x="485" 
d="M61 0v421h98v-39c42 47 90 50 114 50c78 0 111 -39 124 -57c16 -23 26 -52 26 -117v-258h-98v234c0 107 -40 110 -77 110c-44 0 -89 -6 -89 -142v-202h-98zM140 -242l72 192l88 -34l-90 -186z" />
    <glyph glyph-name="Ncaron" unicode="&#x147;" horiz-adv-x="746" 
d="M182 0h-102v712l484 -507v462h102v-708l-484 507v-466zM373 838l99 82l66 -56l-165 -134l-165 134l66 56z" />
    <glyph glyph-name="ncaron" unicode="&#x148;" horiz-adv-x="485" 
d="M61 0v421h98v-39c42 47 90 50 114 50c78 0 111 -39 124 -57c16 -23 26 -52 26 -117v-258h-98v234c0 107 -40 110 -77 110c-44 0 -89 -6 -89 -142v-202h-98zM260 589l88 86l66 -52l-154 -138l-154 138l66 52z" />
    <glyph glyph-name="Omacron" unicode="&#x14c;" horiz-adv-x="790" 
d="M395 679c200 0 347 -150 347 -346s-147 -346 -347 -346s-347 150 -347 346s147 346 347 346zM395 81c143 0 245 104 245 252s-102 252 -245 252s-245 -104 -245 -252s102 -252 245 -252zM215 733v80h360v-80h-360z" />
    <glyph glyph-name="omacron" unicode="&#x14d;" horiz-adv-x="530" 
d="M265 432c127 0 225 -92 225 -222c0 -129 -98 -223 -225 -223s-225 94 -225 223c0 130 98 222 225 222zM265 75c77 0 125 53 125 134c0 96 -63 135 -125 135s-125 -39 -125 -135c0 -81 48 -134 125 -134zM100 508v78h330v-78h-330z" />
    <glyph glyph-name="Obreve" unicode="&#x14e;" horiz-adv-x="790" 
d="M395 679c200 0 347 -150 347 -346s-147 -346 -347 -346s-347 150 -347 346s147 346 347 346zM395 81c143 0 245 104 245 252s-102 252 -245 252s-245 -104 -245 -252s102 -252 245 -252zM483 874h82c-6 -31 -21 -63 -40 -86s-61 -58 -130 -58s-111 35 -130 58
s-34 55 -40 86h82c6 -21 19 -39 34 -49c19 -13 38 -15 54 -15s35 2 54 15c15 10 28 28 34 49z" />
    <glyph glyph-name="obreve" unicode="&#x14f;" horiz-adv-x="530" 
d="M265 432c127 0 225 -92 225 -222c0 -129 -98 -223 -225 -223s-225 94 -225 223c0 130 98 222 225 222zM265 75c77 0 125 53 125 134c0 96 -63 135 -125 135s-125 -39 -125 -135c0 -81 48 -134 125 -134zM348 638h79c-10 -47 -31 -78 -38 -85c-36 -45 -87 -50 -122 -50
c-63 0 -100 20 -125 49c-18 22 -33 54 -39 86h79c5 -17 15 -37 30 -49c18 -15 36 -16 52 -16s36 2 53 15c13 10 26 30 31 50z" />
    <glyph glyph-name="Ohungarumlaut" unicode="&#x150;" horiz-adv-x="790" 
d="M395 679c200 0 347 -150 347 -346s-147 -346 -347 -346s-347 150 -347 346s147 346 347 346zM395 81c143 0 245 104 245 252s-102 252 -245 252s-245 -104 -245 -252s102 -252 245 -252zM377 906l78 -52l-156 -127l-44 36zM577 906l78 -52l-156 -127l-44 36z" />
    <glyph glyph-name="ohungarumlaut" unicode="&#x151;" horiz-adv-x="530" 
d="M265 432c127 0 225 -92 225 -222c0 -129 -98 -223 -225 -223s-225 94 -225 223c0 130 98 222 225 222zM265 75c77 0 125 53 125 134c0 96 -63 135 -125 135s-125 -39 -125 -135c0 -81 48 -134 125 -134zM247 675l82 -46l-146 -144l-42 34zM427 675l82 -46l-146 -144
l-42 34z" />
    <glyph glyph-name="OE" unicode="&#x152;" horiz-adv-x="1058" 
d="M1006 667v-96h-266v-159h258v-96h-258v-220h266v-96h-368v92c-74 -87 -179 -105 -243 -105c-200 0 -347 152 -347 346c0 196 147 346 347 346c47 0 159 -8 243 -108v96h368zM395 585c-143 0 -245 -104 -245 -252s102 -252 245 -252s245 104 245 252s-102 252 -245 252z
" />
    <glyph glyph-name="oe" unicode="&#x153;" horiz-adv-x="838" 
d="M713 142l82 -46c-18 -32 -44 -60 -71 -77c-35 -22 -80 -32 -121 -32c-38 0 -70 6 -100 22c-31 16 -51 37 -64 59c-20 -25 -48 -48 -76 -61c-29 -13 -71 -20 -104 -20c-66 0 -117 24 -155 64c-39 40 -64 97 -64 164c0 68 28 116 57 147c37 38 96 70 168 70
c38 0 72 -7 102 -21c28 -13 52 -31 72 -60c18 27 42 47 66 60c22 11 54 21 99 21c50 0 97 -15 135 -55c54 -56 59 -134 59 -178v-12h-302c2 -30 15 -64 36 -85c23 -23 51 -27 75 -27c27 0 47 6 67 21c17 13 30 30 39 46zM265 75c48 0 76 23 87 33c22 21 38 54 38 101
c0 52 -18 82 -33 98c-21 22 -53 37 -92 37c-38 0 -69 -15 -88 -34c-25 -25 -37 -66 -37 -102c0 -35 12 -75 38 -101c13 -13 40 -32 87 -32zM503 267h195c-4 23 -15 43 -30 57c-13 12 -34 24 -66 24c-34 0 -56 -14 -69 -27c-14 -13 -25 -33 -30 -54z" />
    <glyph glyph-name="Racute" unicode="&#x154;" horiz-adv-x="534" 
d="M80 667h119c81 0 133 -10 176 -39c73 -49 79 -128 79 -157c0 -96 -59 -166 -148 -186l208 -285h-123l-191 273h-18v-273h-102v667zM182 573v-212h32c28 0 142 3 142 109c0 94 -89 103 -139 103h-35zM234 727l-48 40l138 139l86 -60z" />
    <glyph glyph-name="racute" unicode="&#x155;" horiz-adv-x="332" 
d="M62 0v421h98v-38c11 13 27 27 41 35c19 11 38 14 60 14c24 0 50 -4 77 -20l-40 -89c-22 14 -40 15 -50 15c-21 0 -42 -3 -61 -23c-27 -29 -27 -69 -27 -97v-218h-98zM285 675l90 -46l-156 -144l-54 34z" />
    <glyph glyph-name="Rcommaaccent" unicode="&#x156;" horiz-adv-x="534" 
d="M80 667h119c81 0 133 -10 176 -39c73 -49 79 -128 79 -157c0 -96 -59 -166 -148 -186l208 -285h-123l-191 273h-18v-273h-102v667zM182 573v-212h32c28 0 142 3 142 109c0 94 -89 103 -139 103h-35zM180 -242l72 192l88 -34l-90 -186z" />
    <glyph glyph-name="rcommaaccent" unicode="&#x157;" horiz-adv-x="332" 
d="M62 0v421h98v-38c11 13 27 27 41 35c19 11 38 14 60 14c24 0 50 -4 77 -20l-40 -89c-22 14 -40 15 -50 15c-21 0 -42 -3 -61 -23c-27 -29 -27 -69 -27 -97v-218h-98zM70 -242l72 192l88 -34l-90 -186z" />
    <glyph glyph-name="Rcaron" unicode="&#x158;" horiz-adv-x="534" 
d="M80 667h119c81 0 133 -10 176 -39c73 -49 79 -128 79 -157c0 -96 -59 -166 -148 -186l208 -285h-123l-191 273h-18v-273h-102v667zM182 573v-212h32c28 0 142 3 142 109c0 94 -89 103 -139 103h-35zM240 838l99 82l66 -56l-165 -134l-165 134l66 56z" />
    <glyph glyph-name="rcaron" unicode="&#x159;" horiz-adv-x="332" 
d="M62 0v421h98v-38c11 13 27 27 41 35c19 11 38 14 60 14c24 0 50 -4 77 -20l-40 -89c-22 14 -40 15 -50 15c-21 0 -42 -3 -61 -23c-27 -29 -27 -69 -27 -97v-218h-98zM210 589l88 86l66 -52l-154 -138l-154 138l66 52z" />
    <glyph glyph-name="Sacute" unicode="&#x15a;" horiz-adv-x="516" 
d="M450 567l-82 -48c-6 15 -15 29 -30 42c-21 17 -43 24 -72 24c-62 0 -94 -37 -94 -80c0 -20 7 -55 72 -81l67 -27c123 -50 157 -120 157 -196c0 -127 -90 -214 -215 -214c-77 0 -123 29 -157 67c-36 40 -52 84 -56 130l101 22c0 -33 12 -64 28 -85c19 -24 47 -40 87 -40
c62 0 110 45 110 112c0 68 -52 96 -96 114l-64 27c-55 23 -136 69 -136 169c0 90 70 176 195 176c72 0 113 -27 134 -45c18 -16 37 -39 51 -67zM242 727l-48 40l138 139l86 -60z" />
    <glyph glyph-name="sacute" unicode="&#x15b;" horiz-adv-x="360" 
d="M319 358l-73 -48c-10 16 -29 36 -60 36c-14 0 -24 -5 -30 -11c-5 -5 -9 -13 -9 -22c0 -11 5 -18 14 -24c6 -4 12 -6 33 -17l50 -25c22 -11 43 -22 59 -39c23 -23 31 -49 31 -78c0 -38 -14 -71 -37 -96c-33 -36 -74 -47 -118 -47c-27 0 -61 4 -91 27c-24 18 -44 47 -54 77
l80 38c5 -14 14 -32 23 -40c6 -6 20 -16 43 -16c15 0 31 5 40 14c8 8 14 21 14 33s-4 22 -13 32c-12 12 -26 19 -42 26l-36 17c-19 9 -42 20 -58 36c-22 21 -30 44 -30 71c0 34 13 67 35 90c19 20 51 40 103 40c30 0 54 -6 78 -22c14 -9 33 -25 48 -52zM255 675l90 -46
l-156 -144l-54 34z" />
    <glyph glyph-name="Scircumflex" unicode="&#x15c;" horiz-adv-x="516" 
d="M450 567l-82 -48c-6 15 -15 29 -30 42c-21 17 -43 24 -72 24c-62 0 -94 -37 -94 -80c0 -20 7 -55 72 -81l67 -27c123 -50 157 -120 157 -196c0 -127 -90 -214 -215 -214c-77 0 -123 29 -157 67c-36 40 -52 84 -56 130l101 22c0 -33 12 -64 28 -85c19 -24 47 -40 87 -40
c62 0 110 45 110 112c0 68 -52 96 -96 114l-64 27c-55 23 -136 69 -136 169c0 90 70 176 195 176c72 0 113 -27 134 -45c18 -16 37 -39 51 -67zM260 812l-99 -82l-66 56l165 134l165 -134l-66 -56z" />
    <glyph glyph-name="scircumflex" unicode="&#x15d;" horiz-adv-x="360" 
d="M319 358l-73 -48c-10 16 -29 36 -60 36c-14 0 -24 -5 -30 -11c-5 -5 -9 -13 -9 -22c0 -11 5 -18 14 -24c6 -4 12 -6 33 -17l50 -25c22 -11 43 -22 59 -39c23 -23 31 -49 31 -78c0 -38 -14 -71 -37 -96c-33 -36 -74 -47 -118 -47c-27 0 -61 4 -91 27c-24 18 -44 47 -54 77
l80 38c5 -14 14 -32 23 -40c6 -6 20 -16 43 -16c15 0 31 5 40 14c8 8 14 21 14 33s-4 22 -13 32c-12 12 -26 19 -42 26l-36 17c-19 9 -42 20 -58 36c-22 21 -30 44 -30 71c0 34 13 67 35 90c19 20 51 40 103 40c30 0 54 -6 78 -22c14 -9 33 -25 48 -52zM180 571l-88 -86
l-66 52l154 138l154 -138l-66 -52z" />
    <glyph glyph-name="Scedilla" unicode="&#x15e;" horiz-adv-x="516" 
d="M450 567l-82 -48c-6 15 -15 29 -30 42c-21 17 -43 24 -72 24c-62 0 -94 -37 -94 -80c0 -20 7 -55 72 -81l67 -27c123 -50 157 -120 157 -196c0 -127 -90 -214 -215 -214c-77 0 -123 29 -157 67c-36 40 -52 84 -56 130l101 22c0 -33 12 -64 28 -85c19 -24 47 -40 87 -40
c62 0 110 45 110 112c0 68 -52 96 -96 114l-64 27c-55 23 -136 69 -136 169c0 90 70 176 195 176c72 0 113 -27 134 -45c18 -16 37 -39 51 -67zM240 -53l86 -38l-112 -133l-64 32z" />
    <glyph glyph-name="scedilla" unicode="&#x15f;" horiz-adv-x="360" 
d="M319 358l-73 -48c-10 16 -29 36 -60 36c-14 0 -24 -5 -30 -11c-5 -5 -9 -13 -9 -22c0 -11 5 -18 14 -24c6 -4 12 -6 33 -17l50 -25c22 -11 43 -22 59 -39c23 -23 31 -49 31 -78c0 -38 -14 -71 -37 -96c-33 -36 -74 -47 -118 -47c-27 0 -61 4 -91 27c-24 18 -44 47 -54 77
l80 38c5 -14 14 -32 23 -40c6 -6 20 -16 43 -16c15 0 31 5 40 14c8 8 14 21 14 33s-4 22 -13 32c-12 12 -26 19 -42 26l-36 17c-19 9 -42 20 -58 36c-22 21 -30 44 -30 71c0 34 13 67 35 90c19 20 51 40 103 40c30 0 54 -6 78 -22c14 -9 33 -25 48 -52zM168 -53l82 -32
l-102 -134l-64 32z" />
    <glyph glyph-name="Scaron" unicode="&#x160;" horiz-adv-x="516" 
d="M450 567l-82 -48c-6 15 -15 29 -30 42c-21 17 -43 24 -72 24c-62 0 -94 -37 -94 -80c0 -20 7 -55 72 -81l67 -27c123 -50 157 -120 157 -196c0 -127 -90 -214 -215 -214c-77 0 -123 29 -157 67c-36 40 -52 84 -56 130l101 22c0 -33 12 -64 28 -85c19 -24 47 -40 87 -40
c62 0 110 45 110 112c0 68 -52 96 -96 114l-64 27c-55 23 -136 69 -136 169c0 90 70 176 195 176c72 0 113 -27 134 -45c18 -16 37 -39 51 -67zM260 838l99 82l66 -56l-165 -134l-165 134l66 56z" />
    <glyph glyph-name="scaron" unicode="&#x161;" horiz-adv-x="360" 
d="M319 358l-73 -48c-10 16 -29 36 -60 36c-14 0 -24 -5 -30 -11c-5 -5 -9 -13 -9 -22c0 -11 5 -18 14 -24c6 -4 12 -6 33 -17l50 -25c22 -11 43 -22 59 -39c23 -23 31 -49 31 -78c0 -38 -14 -71 -37 -96c-33 -36 -74 -47 -118 -47c-27 0 -61 4 -91 27c-24 18 -44 47 -54 77
l80 38c5 -14 14 -32 23 -40c6 -6 20 -16 43 -16c15 0 31 5 40 14c8 8 14 21 14 33s-4 22 -13 32c-12 12 -26 19 -42 26l-36 17c-19 9 -42 20 -58 36c-22 21 -30 44 -30 71c0 34 13 67 35 90c19 20 51 40 103 40c30 0 54 -6 78 -22c14 -9 33 -25 48 -52zM180 589l88 86
l66 -52l-154 -138l-154 138l66 52z" />
    <glyph glyph-name="Tcedilla" unicode="&#x162;" horiz-adv-x="428" 
d="M418 571h-153v-571h-102v571h-153v96h408v-96zM200 -53l86 -38l-112 -133l-64 32z" />
    <glyph glyph-name="tcedilla" unicode="&#x163;" horiz-adv-x="242" 
d="M238 331h-75v-331h-98v331h-41v90h41v154h98v-154h75v-90zM98 -53l82 -32l-102 -134l-64 32z" />
    <glyph glyph-name="Tcaron" unicode="&#x164;" horiz-adv-x="428" 
d="M418 571h-153v-571h-102v571h-153v96h408v-96zM214 838l99 82l66 -56l-165 -134l-165 134l66 56z" />
    <glyph glyph-name="tcaron" unicode="&#x165;" horiz-adv-x="340" 
d="M238 331h-75v-331h-98v331h-41v90h41v154h98v-154h75v-90zM200 478l82 212l88 -34l-104 -206z" />
    <glyph glyph-name="Utilde" unicode="&#x168;" horiz-adv-x="654" 
d="M80 667h102v-402c0 -36 1 -80 21 -115c20 -34 65 -69 124 -69s104 35 124 69c20 35 21 79 21 115v402h102v-429c0 -53 -11 -117 -62 -173c-35 -38 -94 -78 -185 -78s-150 40 -185 78c-51 56 -62 120 -62 173v429zM449 832l58 -46c-16 -35 -50 -86 -116 -86
c-25 0 -37 7 -55 16c-27 14 -33 18 -42 22c-11 5 -25 10 -37 10c-34 0 -47 -34 -51 -46l-59 41c9 16 25 39 42 54c24 20 49 27 70 27c17 0 33 -4 49 -10s31 -14 46 -23c13 -8 25 -15 41 -15c36 0 50 39 54 56z" />
    <glyph glyph-name="utilde" unicode="&#x169;" horiz-adv-x="484" 
d="M62 421h98v-241c0 -25 1 -54 18 -76c13 -17 36 -29 64 -29s51 12 64 29c17 22 18 51 18 76v241h98v-244c0 -54 -6 -99 -45 -138c-38 -38 -90 -52 -137 -52c-43 0 -95 13 -133 52c-39 39 -45 84 -45 138v244zM364 622l58 -46c-16 -35 -50 -86 -116 -86c-25 0 -37 7 -55 16
c-27 14 -33 18 -42 22c-11 5 -25 10 -37 10c-34 0 -47 -34 -51 -46l-59 41c9 16 25 39 42 54c24 20 49 27 70 27c17 0 33 -4 49 -10s31 -14 46 -23c13 -8 25 -15 41 -15c36 0 50 39 54 56z" />
    <glyph glyph-name="Umacron" unicode="&#x16a;" horiz-adv-x="654" 
d="M80 667h102v-402c0 -36 1 -80 21 -115c20 -34 65 -69 124 -69s104 35 124 69c20 35 21 79 21 115v402h102v-429c0 -53 -11 -117 -62 -173c-35 -38 -94 -78 -185 -78s-150 40 -185 78c-51 56 -62 120 -62 173v429zM147 733v80h360v-80h-360z" />
    <glyph glyph-name="umacron" unicode="&#x16b;" horiz-adv-x="484" 
d="M62 421h98v-241c0 -25 1 -54 18 -76c13 -17 36 -29 64 -29s51 12 64 29c17 22 18 51 18 76v241h98v-244c0 -54 -6 -99 -45 -138c-38 -38 -90 -52 -137 -52c-43 0 -95 13 -133 52c-39 39 -45 84 -45 138v244zM77 508v78h330v-78h-330z" />
    <glyph glyph-name="Ubreve" unicode="&#x16c;" horiz-adv-x="654" 
d="M80 667h102v-402c0 -36 1 -80 21 -115c20 -34 65 -69 124 -69s104 35 124 69c20 35 21 79 21 115v402h102v-429c0 -53 -11 -117 -62 -173c-35 -38 -94 -78 -185 -78s-150 40 -185 78c-51 56 -62 120 -62 173v429zM415 874h82c-6 -31 -21 -63 -40 -86s-61 -58 -130 -58
s-111 35 -130 58s-34 55 -40 86h82c6 -21 19 -39 34 -49c19 -13 38 -15 54 -15s35 2 54 15c15 10 28 28 34 49z" />
    <glyph glyph-name="ubreve" unicode="&#x16d;" horiz-adv-x="484" 
d="M62 421h98v-241c0 -25 1 -54 18 -76c13 -17 36 -29 64 -29s51 12 64 29c17 22 18 51 18 76v241h98v-244c0 -54 -6 -99 -45 -138c-38 -38 -90 -52 -137 -52c-43 0 -95 13 -133 52c-39 39 -45 84 -45 138v244zM325 638h79c-10 -47 -31 -78 -38 -85
c-36 -45 -87 -50 -122 -50c-63 0 -100 20 -125 49c-18 22 -33 54 -39 86h79c5 -17 15 -37 30 -49c18 -15 36 -16 52 -16s36 2 53 15c13 10 26 30 31 50z" />
    <glyph glyph-name="Uring" unicode="&#x16e;" horiz-adv-x="654" 
d="M80 667h102v-402c0 -36 1 -80 21 -115c20 -34 65 -69 124 -69s104 35 124 69c20 35 21 79 21 115v402h102v-429c0 -53 -11 -117 -62 -173c-35 -38 -94 -78 -185 -78s-150 40 -185 78c-51 56 -62 120 -62 173v429zM230 823c0 55 45 97 97 97c54 0 97 -43 97 -97
c0 -52 -42 -97 -97 -97c-53 0 -97 44 -97 97zM284 823c0 -24 19 -43 43 -43s43 19 43 43s-19 43 -43 43s-43 -19 -43 -43z" />
    <glyph glyph-name="uring" unicode="&#x16f;" horiz-adv-x="484" 
d="M62 421h98v-241c0 -25 1 -54 18 -76c13 -17 36 -29 64 -29s51 12 64 29c17 22 18 51 18 76v241h98v-244c0 -54 -6 -99 -45 -138c-38 -38 -90 -52 -137 -52c-43 0 -95 13 -133 52c-39 39 -45 84 -45 138v244zM148 579c0 51 43 94 94 94s94 -43 94 -94s-43 -94 -94 -94
s-94 43 -94 94zM199 579c0 -24 19 -43 43 -43s43 19 43 43s-19 43 -43 43s-43 -19 -43 -43z" />
    <glyph glyph-name="Uhungarumlaut" unicode="&#x170;" horiz-adv-x="654" 
d="M80 667h102v-402c0 -36 1 -80 21 -115c20 -34 65 -69 124 -69s104 35 124 69c20 35 21 79 21 115v402h102v-429c0 -53 -11 -117 -62 -173c-35 -38 -94 -78 -185 -78s-150 40 -185 78c-51 56 -62 120 -62 173v429zM309 906l78 -52l-156 -127l-44 36zM509 906l78 -52
l-156 -127l-44 36z" />
    <glyph glyph-name="uhungarumlaut" unicode="&#x171;" horiz-adv-x="484" 
d="M62 421h98v-241c0 -25 1 -54 18 -76c13 -17 36 -29 64 -29s51 12 64 29c17 22 18 51 18 76v241h98v-244c0 -54 -6 -99 -45 -138c-38 -38 -90 -52 -137 -52c-43 0 -95 13 -133 52c-39 39 -45 84 -45 138v244zM224 675l82 -46l-146 -144l-42 34zM404 675l82 -46l-146 -144
l-42 34z" />
    <glyph glyph-name="Uogonek" unicode="&#x172;" horiz-adv-x="654" 
d="M80 667h102v-402c0 -40 2 -82 21 -115c20 -34 65 -69 124 -69s104 35 124 69s21 75 21 115v402h102v-429c0 -44 -4 -101 -46 -155c-21 -27 -51 -52 -91 -75c-28 -16 -52 -26 -71 -42c-11 -9 -27 -26 -27 -50c0 -10 4 -19 12 -25c9 -7 20 -8 28 -8c17 0 36 3 52 9l-9 -70
c-18 -9 -40 -15 -65 -15c-34 0 -62 13 -79 31c-12 13 -21 32 -21 57c0 22 8 41 22 59c9 12 25 26 38 36c-66 0 -131 26 -175 75c-51 56 -62 120 -62 173v429z" />
    <glyph glyph-name="uogonek" unicode="&#x173;" horiz-adv-x="484" 
d="M62 421h98v-242c0 -26 1 -53 18 -76c19 -24 45 -28 64 -28s45 4 64 28c17 23 18 50 18 76v242h98v-244c0 -44 -2 -95 -45 -138c-19 -19 -44 -33 -64 -45c-21 -13 -37 -22 -49 -35c-15 -16 -20 -31 -20 -42s4 -20 10 -25c10 -9 28 -9 34 -9c15 0 32 3 48 9l-9 -62
c-24 -15 -43 -19 -61 -19c-37 0 -63 13 -78 29c-16 16 -22 35 -22 55c0 22 7 38 19 54c10 13 23 27 39 39c-40 3 -84 18 -117 51c-43 43 -45 94 -45 138v244z" />
    <glyph glyph-name="Ydieresis" unicode="&#x178;" horiz-adv-x="540" 
d="M219 0v288l-219 379h116l154 -267l154 267h116l-219 -379v-288h-102zM110 795c0 35 27 62 62 62s62 -27 62 -62s-27 -62 -62 -62s-62 27 -62 62zM306 795c0 35 27 62 62 62s62 -27 62 -62s-27 -62 -62 -62s-62 27 -62 62z" />
    <glyph glyph-name="Zacute" unicode="&#x179;" horiz-adv-x="554" 
d="M524 667l-328 -571h320v-96h-486l328 571h-274v96h440zM274 727l-48 40l138 139l86 -60z" />
    <glyph glyph-name="zacute" unicode="&#x17a;" horiz-adv-x="480" 
d="M472 421l-271 -331h250v-90h-443l273 331h-215v90h406zM315 675l90 -46l-156 -144l-54 34z" />
    <glyph glyph-name="Zdotaccent" unicode="&#x17b;" horiz-adv-x="554" 
d="M524 667l-328 -571h320v-96h-486l328 571h-274v96h440zM223 801c0 38 29 67 67 67s67 -29 67 -67s-29 -67 -67 -67s-67 29 -67 67z" />
    <glyph glyph-name="zdotaccent" unicode="&#x17c;" horiz-adv-x="480" 
d="M472 421l-271 -331h250v-90h-443l273 331h-215v90h406zM195 550c0 36 29 65 65 65s65 -29 65 -65s-29 -65 -65 -65s-65 29 -65 65z" />
    <glyph glyph-name="Zcaron" unicode="&#x17d;" horiz-adv-x="554" 
d="M524 667l-328 -571h320v-96h-486l328 571h-274v96h440zM290 838l99 82l66 -56l-165 -134l-165 134l66 56z" />
    <glyph glyph-name="zcaron" unicode="&#x17e;" horiz-adv-x="480" 
d="M472 421l-271 -331h250v-90h-443l273 331h-215v90h406zM260 589l88 86l66 -52l-154 -138l-154 138l66 52z" />
    <glyph glyph-name="uni018F" unicode="&#x18f;" horiz-adv-x="748" 
d="M149 478l-72 66c21 28 43 50 73 71c50 36 113 64 203 64c75 0 172 -19 252 -102c76 -79 95 -173 95 -244c0 -95 -32 -179 -102 -249c-58 -58 -133 -97 -239 -97c-125 0 -202 59 -248 124c-53 75 -63 152 -63 215v31h549c-10 140 -120 228 -244 228
c-106 0 -172 -63 -204 -107zM589 263h-432c4 -41 19 -80 44 -111c26 -32 74 -71 159 -71c78 0 139 33 177 77c25 29 43 66 52 105z" />
    <glyph glyph-name="florin" unicode="&#x192;" horiz-adv-x="568" 
d="M508 731l-18 -93c-17 8 -33 10 -44 10c-22 0 -38 -7 -51 -21c-14 -16 -22 -42 -28 -74l-24 -132h112l-14 -78h-112l-51 -279c-13 -69 -26 -143 -72 -187c-39 -38 -106 -59 -186 -53l16 93h6c30 0 65 2 90 27c27 26 36 76 44 119l51 280h-85l14 78h85l26 144
c7 39 22 96 58 132c37 37 82 43 115 43c24 0 47 -3 68 -9z" />
    <glyph glyph-name="uni01CF" unicode="&#x1cf;" horiz-adv-x="262" 
d="M80 667h102v-667h-102v667zM131 838l79 77l59 -49l-138 -131l-138 131l59 49z" />
    <glyph glyph-name="uni01D0" unicode="&#x1d0;" horiz-adv-x="222" 
d="M62 421h98v-421h-98v421zM111 593l70 73l54 -46l-124 -125l-124 125l54 46z" />
    <glyph glyph-name="uni01DD" unicode="&#x1dd;" horiz-adv-x="488" 
d="M133 292l-89 30c13 27 35 57 73 80c37 22 76 30 117 30c72 0 119 -24 149 -52c37 -35 65 -95 65 -174c0 -74 -25 -128 -64 -166c-42 -41 -89 -53 -142 -53c-46 0 -94 10 -135 50c-39 38 -67 103 -67 180v25h306c-3 30 -17 60 -35 76c-17 16 -44 26 -78 26
c-28 0 -49 -7 -63 -16c-14 -8 -27 -22 -37 -36zM339 162h-195c3 -24 14 -53 30 -68c15 -15 40 -23 66 -23c34 0 55 13 68 26c15 15 28 38 31 65z" />
    <glyph glyph-name="Gcaron" unicode="&#x1e6;" horiz-adv-x="748" 
d="M425 253v94h275v-5c0 -114 -34 -207 -99 -270c-69 -67 -151 -85 -227 -85c-97 0 -166 28 -227 91c-65 67 -99 156 -99 252c0 104 42 194 97 249c57 58 148 100 251 100c60 0 122 -13 174 -42c55 -31 89 -70 108 -100l-81 -57c-20 28 -50 58 -82 76c-37 22 -77 29 -118 29
c-87 0 -143 -36 -176 -69c-44 -44 -71 -115 -71 -187c0 -67 25 -134 69 -181c46 -49 103 -67 167 -67c58 0 106 17 149 59c37 36 52 75 56 113h-166zM374 838l99 82l66 -56l-165 -134l-165 134l66 56z" />
    <glyph glyph-name="gcaron" unicode="&#x1e7;" horiz-adv-x="530" 
d="M370 375v46h98v-387c0 -99 -11 -170 -69 -219c-27 -22 -71 -45 -140 -45c-49 0 -98 12 -138 52c-31 31 -55 80 -62 131h95c4 -23 16 -50 31 -66c12 -13 36 -29 76 -29c41 0 65 16 77 28c32 31 32 75 32 106v55c-45 -57 -100 -60 -128 -60c-54 0 -99 15 -139 57
c-38 40 -63 97 -63 167c0 77 29 130 62 163c42 43 92 58 143 58c42 0 89 -14 125 -57zM257 344c-27 0 -52 -7 -74 -28c-25 -23 -43 -62 -43 -107c0 -42 16 -83 42 -106c18 -16 45 -28 75 -28c31 0 58 9 82 34c29 31 37 67 37 99c0 47 -15 82 -40 106c-24 24 -51 30 -79 30z
M265 589l88 86l66 -52l-154 -138l-154 138l66 52z" />
    <glyph glyph-name="AEacute" unicode="&#x1fc;" horiz-adv-x="926" 
d="M546 0l-70 159h-283l-73 -159h-110l320 667h295l42 -96h-265l70 -159h258l42 -96h-258l95 -220h265l42 -96h-370zM238 255h198l-95 217zM447 727l-48 40l138 139l86 -60z" />
    <glyph glyph-name="aeacute" unicode="&#x1fd;" horiz-adv-x="756" 
d="M99 328v91c48 11 83 13 119 13c28 0 58 -2 87 -13c30 -11 49 -29 63 -47c15 18 32 32 58 43c31 14 59 17 87 17c50 0 102 -11 144 -55c54 -57 59 -134 59 -178v-12h-302c2 -30 15 -64 36 -85c23 -23 51 -27 75 -27c27 0 47 6 67 21c17 13 30 30 39 46l82 -46
c-18 -32 -44 -60 -71 -77c-33 -21 -79 -32 -126 -32c-24 0 -57 3 -88 18c-32 15 -50 36 -60 50c-16 -19 -41 -40 -68 -52c-33 -14 -74 -16 -89 -16c-47 0 -91 8 -129 45c-30 29 -42 62 -42 96c0 45 19 78 40 98c32 31 82 45 128 45c33 0 71 -7 108 -28c0 33 -10 60 -28 76
c-24 21 -59 25 -86 25c-32 0 -62 -4 -103 -16zM220 187c-21 0 -49 -3 -69 -21c-13 -12 -17 -25 -17 -37c0 -13 7 -28 20 -39c11 -9 31 -19 66 -19c32 0 52 9 63 16c27 17 27 40 27 44c0 10 -5 29 -31 43c-19 10 -37 13 -59 13zM421 267h195c-4 23 -15 43 -30 57
c-22 20 -47 24 -66 24c-30 0 -51 -10 -69 -27c-8 -8 -23 -26 -30 -54zM453 675l90 -46l-156 -144l-54 34z" />
    <glyph glyph-name="Scommaaccent" unicode="&#x218;" horiz-adv-x="516" 
d="M450 567l-82 -48c-6 15 -15 29 -30 42c-21 17 -43 24 -72 24c-62 0 -94 -37 -94 -80c0 -20 7 -55 72 -81l67 -27c123 -50 157 -120 157 -196c0 -127 -90 -214 -215 -214c-77 0 -123 29 -157 67c-36 40 -52 84 -56 130l101 22c0 -33 12 -64 28 -85c19 -24 47 -40 87 -40
c62 0 110 45 110 112c0 68 -52 96 -96 114l-64 27c-55 23 -136 69 -136 169c0 90 70 176 195 176c72 0 113 -27 134 -45c18 -16 37 -39 51 -67zM160 -242l72 192l88 -34l-90 -186z" />
    <glyph glyph-name="scommaaccent" unicode="&#x219;" horiz-adv-x="360" 
d="M319 358l-73 -48c-10 16 -29 36 -60 36c-14 0 -24 -5 -30 -11c-5 -5 -9 -13 -9 -22c0 -11 5 -18 14 -24c6 -4 12 -6 33 -17l50 -25c22 -11 43 -22 59 -39c23 -23 31 -49 31 -78c0 -38 -14 -71 -37 -96c-33 -36 -74 -47 -118 -47c-27 0 -61 4 -91 27c-24 18 -44 47 -54 77
l80 38c5 -14 14 -32 23 -40c6 -6 20 -16 43 -16c15 0 31 5 40 14c8 8 14 21 14 33s-4 22 -13 32c-12 12 -26 19 -42 26l-36 17c-19 9 -42 20 -58 36c-22 21 -30 44 -30 71c0 34 13 67 35 90c19 20 51 40 103 40c30 0 54 -6 78 -22c14 -9 33 -25 48 -52zM80 -242l72 192
l88 -34l-90 -186z" />
    <glyph glyph-name="Tcommaaccent" unicode="&#x21a;" horiz-adv-x="428" 
d="M418 571h-153v-571h-102v571h-153v96h408v-96zM130 -242l72 192l88 -34l-90 -186z" />
    <glyph glyph-name="tcommaaccent" unicode="&#x21b;" horiz-adv-x="242" 
d="M238 331h-75v-331h-98v331h-41v90h41v154h98v-154h75v-90zM30 -242l72 192l88 -34l-90 -186z" />
    <glyph glyph-name="uni0228" unicode="&#x228;" 
d="M448 667v-96h-266v-169h258v-96h-258v-210h266v-96h-368v667h368zM260 -53l86 -38l-112 -133l-64 32z" />
    <glyph glyph-name="uni0229" unicode="&#x229;" horiz-adv-x="482" 
d="M357 142l82 -46c-18 -32 -44 -60 -71 -77c-34 -22 -79 -32 -124 -32c-56 0 -102 14 -142 54s-62 98 -62 161c0 65 23 128 67 173c35 35 81 57 141 57c67 0 110 -29 135 -55c54 -56 59 -134 59 -178v-12h-302c2 -30 15 -64 36 -85c23 -23 51 -27 75 -27c27 0 47 6 67 21
c17 13 30 30 39 46zM147 267h195c-4 23 -15 43 -30 57c-13 12 -34 24 -66 24c-34 0 -56 -14 -69 -27c-14 -13 -25 -33 -30 -54zM249 -53l82 -32l-102 -134l-64 32z" />
    <glyph glyph-name="uni0237" unicode="&#x237;" horiz-adv-x="222" 
d="M62 421h98v-650h-98v650z" />
    <glyph glyph-name="uni0259" unicode="&#x259;" horiz-adv-x="488" 
d="M133 292l-89 30c13 27 35 57 73 80c37 22 76 30 117 30c72 0 119 -24 149 -52c37 -35 65 -95 65 -174c0 -74 -25 -128 -64 -166c-42 -41 -89 -53 -142 -53c-46 0 -94 10 -135 50c-39 38 -67 103 -67 180v25h306c-3 30 -17 60 -35 76c-17 16 -44 26 -78 26
c-28 0 -49 -7 -63 -16c-14 -8 -27 -22 -37 -36zM339 162h-195c3 -24 14 -53 30 -68c15 -15 40 -23 66 -23c34 0 55 13 68 26c15 15 28 38 31 65z" />
    <glyph glyph-name="afii57929" unicode="&#x2bc;" 
d="M160 478l82 212l88 -34l-104 -206z" />
    <glyph glyph-name="circumflex" unicode="&#x2c6;" 
d="M250 571l-88 -86l-66 52l154 138l154 -138l-66 -52z" />
    <glyph glyph-name="caron" unicode="&#x2c7;" 
d="M250 589l88 86l66 -52l-154 -138l-154 138l66 52z" />
    <glyph glyph-name="uni02C9" unicode="&#x2c9;" 
d="M85 508v78h330v-78h-330z" />
    <glyph glyph-name="breve" unicode="&#x2d8;" 
d="M333 638h79c-10 -47 -31 -78 -38 -85c-36 -45 -87 -50 -122 -50c-63 0 -100 20 -125 49c-18 22 -33 54 -39 86h79c5 -17 15 -37 30 -49c18 -15 36 -16 52 -16s36 2 53 15c13 10 26 30 31 50z" />
    <glyph glyph-name="dotaccent" unicode="&#x2d9;" 
d="M185 550c0 36 29 65 65 65s65 -29 65 -65s-29 -65 -65 -65s-65 29 -65 65z" />
    <glyph glyph-name="ring" unicode="&#x2da;" 
d="M156 579c0 51 43 94 94 94s94 -43 94 -94s-43 -94 -94 -94s-94 43 -94 94zM207 579c0 -24 19 -43 43 -43s43 19 43 43s-19 43 -43 43s-43 -19 -43 -43z" />
    <glyph glyph-name="ogonek" unicode="&#x2db;" 
d="M249 0h73c-26 -14 -43 -30 -51 -39c-12 -13 -21 -26 -21 -45c0 -30 29 -31 40 -31c23 0 44 5 52 7l-9 -62c-25 -16 -47 -19 -62 -19c-53 0 -99 31 -99 84c0 27 12 48 26 64c13 15 32 30 51 41z" />
    <glyph glyph-name="tilde" unicode="&#x2dc;" 
d="M372 622l58 -46c-16 -35 -50 -86 -116 -86c-25 0 -37 7 -55 16c-27 14 -33 18 -42 22c-11 5 -25 10 -37 10c-34 0 -47 -34 -51 -46l-59 41c9 16 25 39 42 54c24 20 49 27 70 27c17 0 33 -4 49 -10s31 -14 46 -23c13 -8 25 -15 41 -15c36 0 50 39 54 56z" />
    <glyph glyph-name="hungarumlaut" unicode="&#x2dd;" 
d="M232 675l82 -46l-146 -144l-42 34zM412 675l82 -46l-146 -144l-42 34z" />
    <glyph glyph-name="acutecomb" unicode="&#x301;" horiz-adv-x="2" 
d="M-173 675l90 -46l-156 -144l-54 34z" />
    <glyph glyph-name="uni0394" unicode="&#x394;" horiz-adv-x="668" 
d="M644 0h-620l256 667h104zM332 529l-160 -433h320z" />
    <glyph glyph-name="uni0394" unicode="&#x2206;" horiz-adv-x="668" 
d="M644 0h-620l256 667h104zM332 529l-160 -433h320z" />
    <glyph glyph-name="uni03A9" unicode="&#x3a9;" horiz-adv-x="666" 
d="M374 0v108c54 23 91 58 114 90c36 49 48 100 48 153c0 49 -9 121 -69 179c-46 44 -96 55 -134 55s-88 -11 -134 -55c-60 -58 -69 -130 -69 -179c0 -53 12 -104 48 -153c23 -32 60 -67 114 -90v-108h-264v96h161c-34 17 -85 49 -124 117c-28 48 -37 91 -37 144
c0 123 50 199 93 241c70 69 153 81 212 81s142 -12 212 -81c43 -42 93 -118 93 -241c0 -53 -9 -96 -37 -144c-39 -68 -90 -100 -124 -117h161v-96h-264z" />
    <glyph glyph-name="uni03A9" unicode="&#x2126;" horiz-adv-x="666" 
d="M374 0v108c54 23 91 58 114 90c36 49 48 100 48 153c0 49 -9 121 -69 179c-46 44 -96 55 -134 55s-88 -11 -134 -55c-60 -58 -69 -130 -69 -179c0 -53 12 -104 48 -153c23 -32 60 -67 114 -90v-108h-264v96h161c-34 17 -85 49 -124 117c-28 48 -37 91 -37 144
c0 123 50 199 93 241c70 69 153 81 212 81s142 -12 212 -81c43 -42 93 -118 93 -241c0 -53 -9 -96 -37 -144c-39 -68 -90 -100 -124 -117h161v-96h-264z" />
    <glyph glyph-name="pi" unicode="&#x3c0;" horiz-adv-x="554" 
d="M195 0h-98v331h-75v90h510v-90h-75v-331h-98v331h-164v-331z" />
    <glyph glyph-name="afii10023" unicode="&#x401;" 
d="M448 667v-96h-266v-169h258v-96h-258v-210h266v-96h-368v667h368zM104 795c0 35 27 62 62 62s62 -27 62 -62s-27 -62 -62 -62s-62 27 -62 62zM300 795c0 35 27 62 62 62s62 -27 62 -62s-27 -62 -62 -62s-62 27 -62 62z" />
    <glyph glyph-name="afii10051" unicode="&#x402;" horiz-adv-x="668" 
d="M486 571h-220v-186c46 15 95 23 137 23c46 0 95 -9 130 -30c78 -46 87 -129 87 -179c0 -95 -39 -144 -73 -168c-37 -27 -92 -37 -140 -37c-20 0 -47 3 -67 6v94c18 -4 40 -6 64 -6c18 0 54 2 78 21c16 13 34 39 34 89c0 45 -14 79 -53 100c-27 14 -62 16 -77 16
c-57 0 -111 -19 -120 -23v-291h-102v571h-154v96h476v-96z" />
    <glyph glyph-name="afii10052" unicode="&#x403;" horiz-adv-x="428" 
d="M80 0v667h334v-96h-232v-571h-102zM234 727l-48 40l138 139l86 -60z" />
    <glyph glyph-name="afii10053" unicode="&#x404;" horiz-adv-x="620" 
d="M574 631v-120c-74 68 -145 74 -181 74c-96 0 -150 -39 -178 -70c-32 -35 -52 -83 -59 -125h328v-96h-331c6 -67 37 -113 61 -139c41 -45 105 -74 180 -74c80 0 142 41 180 77v-121c-67 -40 -137 -50 -183 -50c-121 0 -197 55 -236 92c-78 73 -107 158 -107 252
c0 123 51 208 107 261c69 65 149 87 241 87c61 0 120 -11 178 -48z" />
    <glyph glyph-name="afii10054" unicode="&#x405;" horiz-adv-x="516" 
d="M450 567l-82 -48c-6 15 -15 29 -30 42c-21 17 -43 24 -72 24c-62 0 -94 -37 -94 -80c0 -20 7 -55 72 -81l67 -27c123 -50 157 -120 157 -196c0 -127 -90 -214 -215 -214c-77 0 -123 29 -157 67c-36 40 -52 84 -56 130l101 22c0 -33 12 -64 28 -85c19 -24 47 -40 87 -40
c62 0 110 45 110 112c0 68 -52 96 -96 114l-64 27c-55 23 -136 69 -136 169c0 90 70 176 195 176c72 0 113 -27 134 -45c18 -16 37 -39 51 -67z" />
    <glyph glyph-name="afii10055" unicode="&#x406;" horiz-adv-x="262" 
d="M80 667h102v-667h-102v667z" />
    <glyph glyph-name="afii10056" unicode="&#x407;" horiz-adv-x="262" 
d="M80 667h102v-667h-102v667zM14 795c0 30 23 56 50 56c26 0 51 -26 51 -56s-25 -56 -51 -56c-27 0 -50 26 -50 56zM148 795c0 30 23 56 50 56s50 -26 50 -56s-23 -56 -50 -56s-50 26 -50 56z" />
    <glyph glyph-name="afii10057" unicode="&#x408;" horiz-adv-x="362" 
d="M180 667h102v-432c0 -53 -2 -106 -25 -152c-21 -42 -66 -96 -157 -96c-59 0 -98 21 -118 34l50 86c13 -11 34 -24 70 -24c17 0 50 3 67 45c6 15 11 39 11 107v432z" />
    <glyph glyph-name="afii10058" unicode="&#x409;" horiz-adv-x="900" 
d="M144 667h426v-269h76c48 0 116 -8 167 -53c38 -33 63 -86 63 -147s-27 -125 -83 -162c-48 -32 -105 -36 -146 -36h-179v571h-222v-332c0 -76 -3 -153 -66 -205c-34 -28 -79 -40 -121 -40c-18 0 -33 3 -45 6v94c10 -3 23 -6 37 -6c26 0 47 10 60 23c34 33 33 100 33 158
v398zM570 302v-206h72c27 0 134 0 134 101c0 48 -24 105 -132 105h-74z" />
    <glyph glyph-name="afii10059" unicode="&#x40a;" horiz-adv-x="900" 
d="M182 667v-264h286v264h102v-264h76c48 0 116 -8 167 -53c31 -27 63 -75 63 -147c0 -70 -29 -132 -83 -167c-48 -32 -105 -36 -146 -36h-179v307h-286v-307h-102v667h102zM570 307v-211h72c18 0 78 2 108 32c16 16 26 42 26 74s-12 59 -28 74c-17 16 -49 31 -104 31h-74z
" />
    <glyph glyph-name="afii10060" unicode="&#x40b;" horiz-adv-x="690" 
d="M486 571h-220v-178c44 5 86 7 129 7c54 0 123 -4 170 -41c62 -49 65 -129 65 -162v-197h-102v182c0 28 0 75 -36 103c-23 18 -60 21 -106 21c-42 0 -83 -3 -120 -7v-299h-102v571h-154v96h476v-96z" />
    <glyph glyph-name="afii10061" unicode="&#x40c;" horiz-adv-x="586" 
d="M182 667v-266l258 266h134l-301 -302l303 -365h-136l-238 296l-20 -20v-276h-102v667h102zM277 727l-48 40l138 139l86 -60z" />
    <glyph glyph-name="afii10062" unicode="&#x40e;" horiz-adv-x="570" 
d="M6 667h124l172 -356l156 356h106l-301 -667h-106l86 189zM129 832l80 36c16 -55 77 -56 85 -56s69 1 85 56l80 -36c-34 -83 -113 -102 -165 -102s-131 19 -165 102z" />
    <glyph glyph-name="afii10145" unicode="&#x40f;" horiz-adv-x="640" 
d="M80 0v667h102v-571h276v571h102v-667h-192v-166h-96v166h-192z" />
    <glyph glyph-name="afii10017" unicode="&#x410;" horiz-adv-x="656" 
d="M542 0l-70 161h-285l-73 -161h-110l332 706l316 -706h-110zM229 257h202l-99 226z" />
    <glyph glyph-name="afii10018" unicode="&#x411;" horiz-adv-x="526" 
d="M80 0v667h334v-96h-232v-173h66c48 0 116 -8 167 -53c38 -33 63 -86 63 -147s-27 -125 -83 -162c-48 -32 -105 -36 -146 -36h-169zM182 302v-206h62c27 0 134 0 134 101c0 48 -24 105 -132 105h-64z" />
    <glyph glyph-name="afii10019" unicode="&#x412;" horiz-adv-x="526" 
d="M80 667h101c86 0 140 -11 184 -52c36 -34 53 -77 53 -132c0 -26 -4 -53 -20 -79c-15 -26 -35 -39 -50 -46c12 -3 53 -14 86 -48c36 -38 44 -84 44 -125c0 -48 -12 -86 -44 -120c-53 -56 -136 -65 -187 -65h-167v667zM182 571v-191h31c25 0 59 3 83 26c23 22 26 53 26 76
c0 20 -3 44 -24 64c-23 22 -52 25 -81 25h-35zM182 296v-200h62c29 0 75 5 101 26c20 16 33 44 33 74c0 27 -10 53 -27 70c-28 27 -69 30 -105 30h-64z" />
    <glyph glyph-name="afii10020" unicode="&#x413;" horiz-adv-x="428" 
d="M80 0v667h334v-96h-232v-571h-102z" />
    <glyph glyph-name="afii10021" unicode="&#x414;" horiz-adv-x="650" 
d="M144 667h416v-571h76v-246h-96v150h-430v-150h-96v246c48 -2 86 40 106 90c13 33 24 83 24 175v306zM246 571v-210c0 -103 -11 -154 -23 -186c-14 -37 -33 -61 -52 -79h287v475h-212z" />
    <glyph glyph-name="afii10022" unicode="&#x415;" 
d="M448 667v-96h-266v-169h258v-96h-258v-210h266v-96h-368v667h368z" />
    <glyph glyph-name="afii10024" unicode="&#x416;" horiz-adv-x="846" 
d="M372 667h102v-269l238 269h124l-275 -306l281 -361h-126l-226 294l-16 -18v-276h-102v276l-16 18l-226 -294h-126l281 361l-275 306h124l238 -269v269z" />
    <glyph glyph-name="afii10025" unicode="&#x417;" horiz-adv-x="570" 
d="M137 516l-67 65c33 44 71 65 86 72c40 20 80 25 121 25c48 0 107 -7 155 -53c32 -31 48 -69 48 -117c0 -30 -5 -56 -22 -83c-17 -29 -39 -46 -60 -58c42 -11 71 -35 90 -59c26 -33 34 -70 34 -113c0 -56 -19 -107 -67 -149c-56 -48 -126 -58 -180 -58
c-59 0 -111 12 -164 52c-32 25 -63 61 -85 108l90 46c16 -42 42 -67 62 -81c34 -24 70 -31 110 -31c25 0 70 4 102 36c18 18 32 47 32 82c0 33 -11 59 -39 78c-37 26 -87 26 -121 26h-60v96h54c29 0 72 7 96 27c17 14 30 39 30 68c0 33 -15 56 -32 69c-23 18 -53 20 -77 20
c-31 0 -55 -4 -81 -19c-30 -17 -49 -41 -55 -49z" />
    <glyph glyph-name="afii10026" unicode="&#x418;" horiz-adv-x="712" 
d="M530 0v449l-450 -479v697h102v-451l450 479v-695h-102z" />
    <glyph glyph-name="afii10027" unicode="&#x419;" horiz-adv-x="712" 
d="M530 0v449l-450 -479v697h102v-451l450 479v-695h-102zM191 832l80 36c16 -55 77 -56 85 -56s69 1 85 56l80 -36c-34 -83 -113 -102 -165 -102s-131 19 -165 102z" />
    <glyph glyph-name="afii10028" unicode="&#x41a;" horiz-adv-x="586" 
d="M182 667v-266l258 266h134l-301 -302l303 -365h-136l-238 296l-20 -20v-276h-102v667h102z" />
    <glyph glyph-name="afii10029" unicode="&#x41b;" horiz-adv-x="650" 
d="M144 667h426v-667h-102v571h-222v-332c0 -76 -3 -153 -66 -205c-34 -28 -79 -40 -121 -40c-18 0 -33 3 -45 6v94c10 -3 23 -6 37 -6c26 0 47 10 60 23c34 33 33 100 33 158v398z" />
    <glyph glyph-name="afii10030" unicode="&#x41c;" horiz-adv-x="852" 
d="M164 0h-104l140 717l232 -518l234 518l126 -717h-104l-68 402l-194 -433l-192 434z" />
    <glyph glyph-name="afii10031" unicode="&#x41d;" horiz-adv-x="650" 
d="M182 667v-264h286v264h102v-667h-102v307h-286v-307h-102v667h102z" />
    <glyph glyph-name="afii10032" unicode="&#x41e;" horiz-adv-x="790" 
d="M395 679c200 0 347 -150 347 -346s-147 -346 -347 -346s-347 150 -347 346s147 346 347 346zM395 81c143 0 245 104 245 252s-102 252 -245 252s-245 -104 -245 -252s102 -252 245 -252z" />
    <glyph glyph-name="afii10033" unicode="&#x41f;" horiz-adv-x="650" 
d="M80 667h490v-667h-102v571h-286v-571h-102v667z" />
    <glyph glyph-name="afii10034" unicode="&#x420;" horiz-adv-x="480" 
d="M80 667h147c41 0 98 -4 146 -36c56 -37 83 -101 83 -162c0 -39 -10 -99 -65 -146c-53 -45 -114 -52 -163 -52h-46v-271h-102v667zM182 573v-208h46c88 0 130 43 130 105c0 37 -15 103 -131 103h-45z" />
    <glyph glyph-name="afii10035" unicode="&#x421;" horiz-adv-x="620" 
d="M574 631v-120c-74 67 -143 74 -181 74c-145 0 -243 -107 -243 -254c0 -141 102 -250 244 -250c80 0 142 41 180 77v-121c-67 -40 -137 -50 -183 -50c-121 0 -197 55 -236 92c-78 73 -107 158 -107 252c0 123 51 208 107 261c69 65 149 87 241 87c61 0 120 -11 178 -48z
" />
    <glyph glyph-name="afii10036" unicode="&#x422;" horiz-adv-x="428" 
d="M418 571h-153v-571h-102v571h-153v96h408v-96z" />
    <glyph glyph-name="afii10037" unicode="&#x423;" horiz-adv-x="570" 
d="M6 667h124l172 -356l156 356h106l-301 -667h-106l86 189z" />
    <glyph glyph-name="afii10038" unicode="&#x424;" horiz-adv-x="826" 
d="M362 0v94h-18c-208 0 -296 117 -296 260s88 260 296 260h18v80h102v-80h18c208 0 296 -117 296 -260s-88 -260 -296 -260h-18v-94h-102zM362 188v332h-20c-133 0 -192 -72 -192 -166s59 -166 192 -166h20zM464 520v-332h20c133 0 192 72 192 166s-59 166 -192 166h-20z
" />
    <glyph glyph-name="afii10039" unicode="&#x425;" horiz-adv-x="546" 
d="M10 0l210 348l-184 319h114l130 -226l133 226h114l-192 -319l201 -348h-114l-146 255l-152 -255h-114z" />
    <glyph glyph-name="afii10040" unicode="&#x426;" horiz-adv-x="660" 
d="M80 0v667h102v-571h276v571h102v-571h86v-246h-96v150h-470z" />
    <glyph glyph-name="afii10041" unicode="&#x427;" horiz-adv-x="606" 
d="M424 0v274c-39 -3 -105 -7 -136 -7c-45 0 -116 4 -163 41c-62 49 -65 130 -65 162v197h102v-182c0 -28 0 -75 36 -103c23 -18 60 -21 106 -21c44 0 84 3 120 7v299h102v-667h-102z" />
    <glyph glyph-name="afii10042" unicode="&#x428;" horiz-adv-x="938" 
d="M80 0v667h102v-571h236v571h102v-571h236v571h102v-667h-778z" />
    <glyph glyph-name="afii10043" unicode="&#x429;" horiz-adv-x="958" 
d="M80 0v667h102v-571h236v571h102v-571h236v571h102v-571h86v-246h-96v150h-768z" />
    <glyph glyph-name="afii10044" unicode="&#x42a;" horiz-adv-x="592" 
d="M160 0v571h-150v96h252v-269h76c48 0 116 -8 167 -53c38 -33 63 -86 63 -147s-27 -125 -83 -162c-48 -32 -105 -36 -146 -36h-179zM262 302v-206h72c27 0 134 0 134 101c0 48 -24 105 -132 105h-74z" />
    <glyph glyph-name="afii10045" unicode="&#x42b;" horiz-adv-x="740" 
d="M80 0v667h102v-269h76c48 0 116 -8 167 -53c38 -33 63 -86 63 -147s-27 -125 -83 -162c-48 -32 -105 -36 -146 -36h-179zM182 302v-206h72c27 0 134 0 134 101c0 48 -24 105 -132 105h-74zM558 667h102v-667h-102v667z" />
    <glyph glyph-name="afii10046" unicode="&#x42c;" horiz-adv-x="512" 
d="M80 0v667h102v-269h76c48 0 116 -8 167 -53c38 -33 63 -86 63 -147s-27 -125 -83 -162c-48 -32 -105 -36 -146 -36h-179zM182 302v-206h72c27 0 134 0 134 101c0 48 -24 105 -132 105h-74z" />
    <glyph glyph-name="afii10047" unicode="&#x42d;" horiz-adv-x="622" 
d="M48 511v120c47 27 107 48 193 48c87 0 166 -20 234 -87c83 -82 99 -185 99 -258c0 -107 -34 -191 -99 -256c-68 -68 -149 -91 -237 -91c-87 0 -148 25 -190 50v121c64 -65 143 -77 190 -77c66 0 120 18 162 60c30 30 62 80 68 149h-330v96h328c-6 55 -29 102 -61 135
c-31 32 -82 64 -166 64c-92 0 -155 -42 -191 -74z" />
    <glyph glyph-name="afii10048" unicode="&#x42e;" horiz-adv-x="1000" 
d="M182 402h100c14 84 54 142 89 178c51 52 130 99 244 99c195 0 337 -149 337 -346c0 -196 -143 -346 -337 -346c-135 0 -217 63 -261 117c-37 46 -70 116 -72 202h-100v-306h-102v667h102v-265zM615 81c138 0 235 105 235 252s-97 252 -235 252s-235 -105 -235 -252
s97 -252 235 -252z" />
    <glyph glyph-name="afii10049" unicode="&#x42f;" horiz-adv-x="534" 
d="M20 0l198 278c-34 4 -74 20 -103 45c-47 41 -57 93 -57 142s12 97 51 139c58 62 134 63 181 63h164v-667h-102v267h-24l-182 -267h-126zM352 573h-50c-49 0 -87 -5 -114 -31c-18 -17 -32 -44 -32 -77c0 -45 22 -69 38 -80c27 -18 71 -24 102 -24h56v212z" />
    <glyph glyph-name="afii10065" unicode="&#x430;" horiz-adv-x="530" 
d="M370 372v49h98v-421h-98v44c-43 -50 -96 -57 -126 -57c-130 0 -204 108 -204 224c0 137 94 221 205 221c31 0 85 -8 125 -60zM257 344c-71 0 -117 -60 -117 -135c0 -73 46 -134 117 -134c62 0 119 45 119 133c0 92 -57 136 -119 136z" />
    <glyph glyph-name="afii10066" unicode="&#x431;" horiz-adv-x="530" 
d="M380 710h100c-14 -69 -64 -123 -132 -142l-66 -18c-39 -11 -79 -22 -109 -63c-23 -31 -34 -80 -35 -114h1c37 50 102 59 143 59c64 0 112 -24 147 -60c36 -37 61 -92 61 -160c0 -132 -98 -225 -225 -225c-74 0 -125 28 -154 56c-69 65 -71 158 -71 216
c0 126 16 219 64 289c31 46 69 76 126 90l70 17c61 15 75 38 80 55zM265 75c77 0 125 53 125 134c0 96 -63 135 -125 135s-125 -39 -125 -135c0 -81 48 -134 125 -134z" />
    <glyph glyph-name="afii10067" unicode="&#x432;" horiz-adv-x="442" 
d="M62 421h165c25 0 64 -1 96 -25c15 -12 39 -37 39 -81c0 -34 -16 -65 -50 -82c20 -4 41 -14 57 -28c19 -17 33 -43 33 -81c0 -51 -25 -80 -46 -96c-35 -26 -78 -28 -97 -28h-197v421zM160 257h50c23 0 36 7 39 9c16 10 19 24 19 34c0 15 -7 26 -17 33c-13 9 -28 8 -43 8
h-48v-84zM160 80h73c16 0 36 2 51 12c9 6 20 18 20 37s-9 31 -19 37c-15 10 -35 11 -49 11h-76v-97z" />
    <glyph glyph-name="afii10068" unicode="&#x433;" horiz-adv-x="328" 
d="M62 0v421h258v-90h-160v-331h-98z" />
    <glyph glyph-name="afii10069" unicode="&#x434;" horiz-adv-x="486" 
d="M98 421h316v-331h64v-210h-90v120h-294v-120h-90v210c38 2 64 29 77 55c12 26 17 60 17 111v165zM316 90v241h-124v-112c0 -73 -23 -109 -49 -129h173z" />
    <glyph glyph-name="afii10070" unicode="&#x435;" horiz-adv-x="482" 
d="M357 142l82 -46c-18 -32 -44 -60 -71 -77c-34 -22 -79 -32 -124 -32c-56 0 -102 14 -142 54s-62 98 -62 161c0 65 23 128 67 173c35 35 81 57 141 57c67 0 110 -29 135 -55c54 -56 59 -134 59 -178v-12h-302c2 -30 15 -64 36 -85c23 -23 51 -27 75 -27c27 0 47 6 67 21
c17 13 30 30 39 46zM147 267h195c-4 23 -15 43 -30 57c-13 12 -34 24 -66 24c-34 0 -56 -14 -69 -27c-14 -13 -25 -33 -30 -54z" />
    <glyph glyph-name="afii10072" unicode="&#x436;" horiz-adv-x="624" 
d="M263 421h98v-156l127 156h118l-163 -192l179 -229h-122l-127 169l-12 -14v-155h-98v155l-12 14l-127 -169h-122l179 229l-163 192h118l127 -156v156z" />
    <glyph glyph-name="afii10073" unicode="&#x437;" horiz-adv-x="440" 
d="M119 312l-63 55c14 17 35 34 64 47c35 15 72 18 99 18c36 0 73 -5 107 -29c32 -23 44 -50 44 -86c0 -21 -3 -39 -18 -58c-13 -17 -28 -25 -40 -30c23 -5 46 -16 61 -31c22 -22 27 -49 27 -70c0 -39 -12 -69 -36 -93c-33 -33 -80 -48 -148 -48c-30 0 -72 3 -110 25
c-24 14 -50 38 -66 75l78 40c8 -17 21 -34 37 -44c17 -11 40 -16 63 -16c17 0 49 3 67 21c9 10 15 23 15 37s-5 26 -13 34c-17 18 -46 18 -70 18h-44v80h37c14 0 36 3 48 11c8 6 18 16 18 37c0 18 -9 30 -18 36c-14 10 -34 11 -47 11c-20 0 -36 -3 -55 -12
c-12 -6 -25 -15 -37 -28z" />
    <glyph glyph-name="afii10074" unicode="&#x438;" horiz-adv-x="510" 
d="M62 421h98v-239l288 277v-459h-98v245l-288 -277v453z" />
    <glyph glyph-name="afii10075" unicode="&#x439;" horiz-adv-x="510" 
d="M62 421h98v-239l288 277v-459h-98v245l-288 -277v453zM94 603l80 23c17 -58 58 -65 82 -65c43 0 68 20 82 65l80 -23c-23 -83 -105 -118 -162 -118s-139 35 -162 118z" />
    <glyph glyph-name="afii10076" unicode="&#x43a;" horiz-adv-x="442" 
d="M62 421h98v-150l140 150h130l-184 -184l194 -237h-124l-140 173l-16 -16v-157h-98v421z" />
    <glyph glyph-name="afii10077" unicode="&#x43b;" horiz-adv-x="470" 
d="M408 421v-421h-98v331h-124v-167c0 -36 -5 -83 -40 -121c-38 -42 -93 -50 -138 -43v90c29 -7 56 4 69 19c13 16 15 39 15 55v257h316z" />
    <glyph glyph-name="afii10078" unicode="&#x43c;" horiz-adv-x="580" 
d="M14 0l102 459l174 -321l174 321l102 -459h-100l-42 211l-134 -243l-134 243l-42 -211h-100z" />
    <glyph glyph-name="afii10079" unicode="&#x43d;" horiz-adv-x="494" 
d="M62 0v421h98v-156h174v156h98v-421h-98v175h-174v-175h-98z" />
    <glyph glyph-name="afii10080" unicode="&#x43e;" horiz-adv-x="530" 
d="M265 432c127 0 225 -92 225 -222c0 -129 -98 -223 -225 -223s-225 94 -225 223c0 130 98 222 225 222zM265 75c77 0 125 53 125 134c0 96 -63 135 -125 135s-125 -39 -125 -135c0 -81 48 -134 125 -134z" />
    <glyph glyph-name="afii10081" unicode="&#x43f;" horiz-adv-x="490" 
d="M62 421h366v-421h-98v331h-170v-331h-98v421z" />
    <glyph glyph-name="afii10082" unicode="&#x440;" horiz-adv-x="530" 
d="M160 49v-278h-98v650h98v-46c36 43 83 57 125 57c111 0 205 -85 205 -219c0 -142 -104 -226 -204 -226c-23 0 -82 8 -126 62zM273 344c-62 0 -119 -44 -119 -136c0 -88 57 -133 119 -133c71 0 117 61 117 134c0 75 -46 135 -117 135z" />
    <glyph glyph-name="afii10083" unicode="&#x441;" horiz-adv-x="420" 
d="M388 402v-110c-45 44 -89 52 -119 52c-46 0 -75 -19 -93 -37s-36 -50 -36 -97c0 -49 19 -82 38 -101c22 -21 53 -34 89 -34c40 0 87 16 121 54v-109c-24 -15 -63 -33 -128 -33c-70 0 -120 20 -160 62c-30 31 -60 81 -60 158c0 79 33 132 64 163c33 33 86 62 169 62
c32 0 70 -5 115 -30z" />
    <glyph glyph-name="afii10084" unicode="&#x442;" horiz-adv-x="360" 
d="M352 331h-123v-331h-98v331h-123v90h344v-90z" />
    <glyph glyph-name="afii10085" unicode="&#x443;" horiz-adv-x="482" 
d="M31 -229l155 295l-180 355h118l120 -246l122 246h110l-335 -650h-110z" />
    <glyph glyph-name="afii10086" unicode="&#x444;" horiz-adv-x="670" 
d="M286 -229v222c-79 -1 -136 23 -173 55c-38 32 -71 82 -71 163c0 88 42 138 70 162c51 44 119 55 174 55v239h98v-239c55 0 123 -11 174 -55c28 -24 70 -74 70 -162c0 -81 -33 -131 -71 -163c-37 -32 -94 -56 -173 -55v-222h-98zM286 81v259c-26 0 -66 -5 -92 -22
c-15 -9 -52 -39 -52 -107c0 -62 30 -92 49 -105c24 -17 61 -26 95 -25zM384 340v-259c34 -1 71 8 95 25c19 13 49 43 49 105c0 68 -37 98 -52 107c-26 17 -66 22 -92 22z" />
    <glyph glyph-name="afii10087" unicode="&#x445;" horiz-adv-x="496" 
d="M6 0l186 228l-150 193h116l93 -123l94 123h120l-155 -193l180 -228h-118l-121 157l-125 -157h-120z" />
    <glyph glyph-name="afii10088" unicode="&#x446;" horiz-adv-x="502" 
d="M62 0v421h98v-331h166v331h98v-331h70v-210h-90v120h-342z" />
    <glyph glyph-name="afii10089" unicode="&#x447;" horiz-adv-x="450" 
d="M290 0v163c-40 -8 -72 -9 -86 -9c-33 0 -77 4 -111 31c-39 31 -41 73 -41 101v135h98v-115c0 -25 5 -46 25 -58c15 -9 39 -10 49 -10c26 0 47 4 66 11v172h98v-421h-98z" />
    <glyph glyph-name="afii10090" unicode="&#x448;" horiz-adv-x="698" 
d="M62 0v421h98v-331h140v331h98v-331h140v331h98v-421h-574z" />
    <glyph glyph-name="afii10091" unicode="&#x449;" horiz-adv-x="714" 
d="M62 0v421h98v-331h140v331h98v-331h140v331h98v-331h70v-210h-90v120h-554z" />
    <glyph glyph-name="afii10092" unicode="&#x44a;" horiz-adv-x="436" 
d="M98 0v331h-90v90h188v-149h56c41 0 89 -1 127 -43c28 -31 33 -67 33 -92c0 -49 -19 -82 -38 -101c-37 -36 -81 -36 -123 -36h-153zM196 84h45c19 0 38 1 51 9c7 5 22 17 22 43c0 21 -9 34 -21 42c-16 10 -36 10 -51 10h-46v-104z" />
    <glyph glyph-name="afii10093" unicode="&#x44b;" horiz-adv-x="580" 
d="M62 0v421h98v-149h56c41 0 89 -1 127 -43c28 -31 33 -67 33 -92c0 -49 -19 -82 -38 -101c-37 -36 -81 -36 -123 -36h-153zM160 84h45c19 0 38 1 51 9c7 5 22 17 22 43c0 21 -9 34 -21 42c-16 10 -36 10 -51 10h-46v-104zM420 0v421h98v-421h-98z" />
    <glyph glyph-name="afii10094" unicode="&#x44c;" horiz-adv-x="400" 
d="M62 0v421h98v-149h56c41 0 89 -1 127 -43c28 -31 33 -67 33 -92c0 -49 -19 -82 -38 -101c-37 -36 -81 -36 -123 -36h-153zM160 84h45c19 0 38 1 51 9c7 5 22 17 22 43c0 21 -9 34 -21 42c-16 10 -36 10 -51 10h-46v-104z" />
    <glyph glyph-name="afii10095" unicode="&#x44d;" horiz-adv-x="428" 
d="M40 317v93c41 16 83 22 119 22c84 0 138 -32 168 -62s61 -81 61 -159c0 -61 -18 -116 -62 -161c-40 -42 -89 -63 -157 -63c-36 0 -83 6 -129 24v93c46 -26 88 -29 115 -29c53 0 81 20 95 34c16 16 27 40 31 65h-195v82h192c-6 32 -24 55 -42 67c-24 17 -56 21 -81 21
c-36 0 -72 -6 -115 -27z" />
    <glyph glyph-name="afii10096" unicode="&#x44e;" horiz-adv-x="700" 
d="M160 265h67c5 29 19 68 55 105c31 31 81 62 157 62c124 0 221 -92 221 -222c0 -129 -96 -223 -221 -223c-88 0 -138 41 -162 67c-22 24 -47 64 -52 121h-65v-175h-98v421h98v-156zM439 344c-61 0 -121 -39 -121 -135s60 -134 121 -134s121 38 121 134s-60 135 -121 135z
" />
    <glyph glyph-name="afii10097" unicode="&#x44f;" horiz-adv-x="418" 
d="M8 0l132 167c-28 4 -51 17 -67 32c-27 26 -35 57 -35 87c0 27 6 66 39 97c36 34 79 38 122 38h157v-421h-98v155h-20l-115 -155h-115zM258 235v102h-57c-19 0 -37 -1 -51 -9c-13 -8 -24 -23 -24 -42c0 -21 10 -34 20 -41c12 -8 30 -10 54 -10h58z" />
    <glyph glyph-name="afii10071" unicode="&#x451;" horiz-adv-x="482" 
d="M357 142l82 -46c-18 -32 -44 -60 -71 -77c-34 -22 -79 -32 -124 -32c-56 0 -102 14 -142 54s-62 98 -62 161c0 65 23 128 67 173c35 35 81 57 141 57c67 0 110 -29 135 -55c54 -56 59 -134 59 -178v-12h-302c2 -30 15 -64 36 -85c23 -23 51 -27 75 -27c27 0 47 6 67 21
c17 13 30 30 39 46zM147 267h195c-4 23 -15 43 -30 57c-13 12 -34 24 -66 24c-34 0 -56 -14 -69 -27c-14 -13 -25 -33 -30 -54zM102 569c0 35 27 62 62 62s62 -27 62 -62s-27 -62 -62 -62s-62 27 -62 62zM282 569c0 35 27 62 62 62s62 -27 62 -62s-27 -62 -62 -62
s-62 27 -62 62z" />
    <glyph glyph-name="afii10099" unicode="&#x452;" horiz-adv-x="486" 
d="M62 0v512h-72v76h72v141h98v-141h200v-76h-200v-167c42 43 88 47 113 47c77 0 112 -40 124 -57c26 -38 27 -87 27 -117v-304c0 -38 -4 -86 -44 -117c-23 -18 -56 -27 -90 -27c-35 0 -58 6 -66 9v88c15 -6 32 -9 47 -9c16 0 35 4 46 22c9 15 9 38 9 60v269
c0 25 0 52 -19 73c-11 12 -30 22 -55 22c-33 0 -59 -16 -72 -35c-14 -20 -20 -52 -20 -106v-163h-98z" />
    <glyph glyph-name="afii10100" unicode="&#x453;" horiz-adv-x="328" 
d="M62 0v421h258v-90h-160v-331h-98zM265 675l90 -46l-156 -144l-54 34z" />
    <glyph glyph-name="afii10101" unicode="&#x454;" horiz-adv-x="428" 
d="M388 404v-104c-17 16 -55 44 -117 44c-30 0 -58 -7 -82 -27c-17 -14 -31 -35 -39 -60h192v-80h-195c3 -32 18 -56 35 -71c23 -20 56 -31 91 -31c61 0 98 30 115 46v-104c-20 -13 -54 -30 -128 -30c-48 0 -110 13 -160 64c-43 44 -60 100 -60 159c0 55 14 115 68 165
c47 44 100 57 161 57c39 0 78 -6 119 -28z" />
    <glyph glyph-name="afii10102" unicode="&#x455;" horiz-adv-x="360" 
d="M319 358l-73 -48c-10 16 -29 36 -60 36c-14 0 -24 -5 -30 -11c-5 -5 -9 -13 -9 -22c0 -11 5 -18 14 -24c6 -4 12 -6 33 -17l50 -25c22 -11 43 -22 59 -39c23 -23 31 -49 31 -78c0 -38 -14 -71 -37 -96c-33 -36 -74 -47 -118 -47c-27 0 -61 4 -91 27c-24 18 -44 47 -54 77
l80 38c5 -14 14 -32 23 -40c6 -6 20 -16 43 -16c15 0 31 5 40 14c8 8 14 21 14 33s-4 22 -13 32c-12 12 -26 19 -42 26l-36 17c-19 9 -42 20 -58 36c-22 21 -30 44 -30 71c0 34 13 67 35 90c19 20 51 40 103 40c30 0 54 -6 78 -22c14 -9 33 -25 48 -52z" />
    <glyph glyph-name="afii10103" unicode="&#x456;" horiz-adv-x="222" 
d="M62 421h98v-421h-98v421zM48 595c0 36 27 63 63 63s63 -27 63 -63s-27 -63 -63 -63s-63 27 -63 63z" />
    <glyph glyph-name="afii10104" unicode="&#x457;" horiz-adv-x="232" 
d="M67 421h98v-421h-98v421zM176 658c23 0 49 -21 49 -62s-26 -62 -49 -62s-49 21 -49 62s26 62 49 62zM56 658c23 0 49 -21 49 -62s-26 -62 -49 -62s-49 21 -49 62s26 62 49 62z" />
    <glyph glyph-name="afii10105" unicode="&#x458;" horiz-adv-x="222" 
d="M62 421h98v-650h-98v650zM48 595c0 36 27 63 63 63s63 -27 63 -63s-27 -63 -63 -63s-63 27 -63 63z" />
    <glyph glyph-name="afii10106" unicode="&#x459;" horiz-adv-x="648" 
d="M408 421v-149h56c41 0 89 -1 127 -43c28 -31 33 -67 33 -92c0 -49 -19 -82 -38 -101c-37 -36 -81 -36 -123 -36h-153v331h-124v-167c0 -36 -5 -83 -40 -121c-16 -17 -51 -45 -113 -45c-8 0 -17 1 -25 2v90c6 -1 13 -2 19 -2c20 0 40 9 50 21c13 16 15 39 15 55v257h316z
M408 84h45c19 0 38 1 51 9c7 5 22 17 22 43c0 21 -9 34 -21 42c-16 10 -36 10 -51 10h-46v-104z" />
    <glyph glyph-name="afii10107" unicode="&#x45a;" horiz-adv-x="672" 
d="M62 0v421h98v-149h174v149h98v-149h56c41 0 89 -1 127 -43c28 -31 33 -67 33 -92c0 -49 -19 -82 -38 -101c-37 -36 -81 -36 -123 -36h-153v188h-174v-188h-98zM432 84h45c19 0 38 1 51 9c7 5 22 17 22 43c0 21 -9 34 -21 42c-16 10 -36 10 -51 10h-46v-104z" />
    <glyph glyph-name="afii10108" unicode="&#x45b;" horiz-adv-x="486" 
d="M62 0v512h-72v76h72v141h98v-141h200v-76h-200v-167c42 43 88 47 113 47c77 0 112 -40 124 -57c26 -38 27 -87 27 -117v-218h-98v209c0 25 0 52 -19 73c-11 12 -30 22 -55 22c-33 0 -59 -16 -72 -35c-14 -20 -20 -52 -20 -106v-163h-98z" />
    <glyph glyph-name="afii10109" unicode="&#x45c;" horiz-adv-x="442" 
d="M62 421h98v-150l140 150h130l-184 -184l194 -237h-124l-140 173l-16 -16v-157h-98v421zM296 675l90 -46l-156 -144l-54 34z" />
    <glyph glyph-name="afii10110" unicode="&#x45e;" horiz-adv-x="482" 
d="M31 -229l155 295l-180 355h118l120 -246l122 246h110l-335 -650h-110zM83 603l80 23c17 -58 58 -65 82 -65c43 0 68 20 82 65l80 -23c-23 -83 -105 -118 -162 -118s-139 35 -162 118z" />
    <glyph glyph-name="afii10193" unicode="&#x45f;" horiz-adv-x="486" 
d="M62 0v421h98v-331h166v331h98v-421h-136v-130h-90v130h-136z" />
    <glyph glyph-name="afii10146" unicode="&#x462;" horiz-adv-x="592" 
d="M160 0v503h-150v94h150v97h102v-97h180v-94h-180v-105h76c48 0 116 -8 167 -53c38 -34 63 -86 63 -146c0 -62 -27 -126 -83 -163c-48 -32 -105 -36 -146 -36h-179zM262 302v-206h72c34 0 77 2 108 33c19 19 26 41 26 68c0 25 -6 52 -28 73c-30 29 -71 32 -104 32h-74z
" />
    <glyph glyph-name="afii10194" unicode="&#x463;" horiz-adv-x="436" 
d="M8 421h90v246h98v-246h120v-84h-120v-65h56c41 0 89 -1 127 -43c28 -31 33 -67 33 -92c0 -49 -19 -82 -38 -101c-37 -36 -81 -36 -123 -36h-153v337h-90v84zM196 84h45c19 0 38 1 51 9c7 5 22 17 22 43c0 21 -9 34 -21 42c-16 10 -36 10 -51 10h-46v-104z" />
    <glyph glyph-name="afii10147" unicode="&#x472;" horiz-adv-x="790" 
d="M395 679c200 0 347 -150 347 -346s-147 -346 -347 -346s-347 150 -347 346s147 346 347 346zM637 287h-484c15 -114 110 -206 242 -206s227 92 242 206zM153 383h484c-16 109 -108 202 -242 202s-226 -93 -242 -202z" />
    <glyph glyph-name="afii10195" unicode="&#x473;" horiz-adv-x="530" 
d="M265 432c127 0 225 -92 225 -222c0 -129 -98 -223 -225 -223s-225 94 -225 223c0 130 98 222 225 222zM386 173h-242c11 -65 62 -98 121 -98s110 33 121 98zM144 253h242c-12 52 -54 91 -121 91s-109 -39 -121 -91z" />
    <glyph glyph-name="afii10148" unicode="&#x474;" horiz-adv-x="600" 
d="M4 667h110l186 -465l186 465h110l-296 -710z" />
    <glyph glyph-name="afii10196" unicode="&#x475;" horiz-adv-x="448" 
d="M6 421h110l108 -240l108 240h110l-218 -451z" />
    <glyph glyph-name="afii10050" unicode="&#x490;" horiz-adv-x="428" 
d="M80 0v667h238v150h96v-246h-232v-571h-102z" />
    <glyph glyph-name="afii10098" unicode="&#x491;" horiz-adv-x="328" 
d="M62 0v421h168v120h90v-210h-160v-331h-98z" />
    <glyph glyph-name="uni0492" unicode="&#x492;" horiz-adv-x="428" 
d="M80 0v322h-90v86h90v259h334v-96h-232v-163h150v-86h-150v-322h-102z" />
    <glyph glyph-name="uni0493" unicode="&#x493;" horiz-adv-x="328" 
d="M62 0v168h-72v80h72v173h258v-90h-160v-83h100v-80h-100v-168h-98z" />
    <glyph glyph-name="uni0494" unicode="&#x494;" horiz-adv-x="584" 
d="M402 571h-220v-186c46 15 95 23 137 23c46 0 95 -9 130 -30c78 -46 87 -129 87 -179c0 -95 -39 -144 -73 -168c-37 -27 -92 -37 -140 -37c-20 0 -47 3 -67 6v94c18 -4 40 -6 64 -6c18 0 54 2 78 21c16 13 34 39 34 89c0 45 -14 79 -53 100c-27 14 -62 16 -77 16
c-57 0 -111 -19 -120 -23v-291h-102v667h322v-96z" />
    <glyph glyph-name="uni0495" unicode="&#x495;" horiz-adv-x="440" 
d="M62 0v421h258v-90h-160v-95h30c57 0 116 -17 153 -52c30 -28 57 -77 57 -147c0 -78 -29 -136 -77 -180c-54 -49 -111 -61 -143 -65v90c26 4 54 15 78 41c24 25 42 63 42 113c0 41 -15 70 -33 86c-26 23 -63 26 -86 26h-21v-148h-98z" />
    <glyph glyph-name="uni0496" unicode="&#x496;" horiz-adv-x="856" 
d="M372 667h102v-269l238 269h124l-275 -306l206 -265h75v-246h-96v150h-30l-226 294l-16 -18v-276h-102v276l-16 18l-226 -294h-126l281 361l-275 306h124l238 -269v269z" />
    <glyph glyph-name="uni0497" unicode="&#x497;" horiz-adv-x="630" 
d="M263 421h98v-156l127 156h118l-163 -192l109 -139h70v-210h-90v120h-32l-127 169l-12 -14v-155h-98v155l-12 14l-127 -169h-122l179 229l-163 192h118l127 -156v156z" />
    <glyph glyph-name="uni0498" unicode="&#x498;" horiz-adv-x="570" 
d="M137 516l-67 65c33 44 71 65 86 72c40 20 80 25 121 25c48 0 107 -7 155 -53c32 -31 48 -69 48 -117c0 -30 -5 -56 -22 -83c-17 -29 -39 -46 -60 -58c42 -11 71 -35 90 -59c26 -33 34 -70 34 -113c0 -56 -19 -107 -67 -149c-30 -26 -69 -45 -112 -52v-160h-96v156
c-63 4 -107 28 -136 50c-16 12 -57 46 -85 108l90 46c16 -42 42 -67 62 -81c34 -24 70 -31 110 -31c25 0 70 4 102 36c18 18 32 47 32 82c0 33 -11 59 -39 78c-37 26 -87 26 -121 26h-60v96h54c29 0 72 7 96 27c17 14 30 39 30 68c0 33 -15 56 -32 69c-23 18 -53 20 -77 20
c-31 0 -55 -4 -81 -19c-30 -17 -49 -41 -55 -49z" />
    <glyph glyph-name="uni0499" unicode="&#x499;" horiz-adv-x="440" 
d="M119 312l-63 55c14 17 35 34 64 47c35 15 72 18 99 18c36 0 73 -5 107 -29c32 -23 44 -50 44 -86c0 -21 -3 -39 -18 -58c-13 -17 -28 -25 -40 -30c23 -5 46 -16 61 -31c22 -22 27 -49 27 -70c0 -39 -12 -69 -36 -93c-18 -18 -47 -37 -88 -42v-123h-90v121
c-44 1 -75 18 -91 29c-22 15 -42 37 -55 67l78 40c8 -17 21 -34 37 -44c17 -11 40 -16 63 -16c17 0 49 3 67 21c9 10 15 23 15 37s-5 26 -13 34c-17 18 -46 18 -70 18h-44v80h37c14 0 36 3 48 11c8 6 18 16 18 37c0 18 -9 30 -18 36c-14 10 -34 11 -47 11
c-20 0 -36 -3 -55 -12c-12 -6 -25 -15 -37 -28z" />
    <glyph glyph-name="uni049A" unicode="&#x49a;" horiz-adv-x="590" 
d="M80 667h102v-266l258 266h134l-301 -302l223 -269h80v-246h-96v150h-40l-238 296l-20 -20v-276h-102v667z" />
    <glyph glyph-name="uni049B" unicode="&#x49b;" horiz-adv-x="448" 
d="M62 421h98v-150l140 150h130l-184 -184l121 -147h73v-210h-90v120h-34l-140 173l-16 -16v-157h-98v421z" />
    <glyph glyph-name="uni049C" unicode="&#x49c;" horiz-adv-x="680" 
d="M80 667h102v-264h86v140h90v-140l192 264h120l-227 -302l227 -365h-120l-192 313v-150h-90v150h-86v-313h-102v667z" />
    <glyph glyph-name="uni049D" unicode="&#x49d;" horiz-adv-x="526" 
d="M62 421h98v-152h60v100h80v-106l114 158h110l-138 -186l138 -235h-110l-114 195v-116h-80v110h-60v-189h-98v421z" />
    <glyph glyph-name="uni04A0" unicode="&#x4a0;" horiz-adv-x="700" 
d="M194 0v571h-184v96h286v-266l258 266h134l-301 -302l303 -365h-136l-238 296l-20 -20v-276h-102z" />
    <glyph glyph-name="uni04A1" unicode="&#x4a1;" horiz-adv-x="510" 
d="M130 0v331h-122v90h220v-150l140 150h130l-184 -184l194 -237h-124l-140 173l-16 -16v-157h-98z" />
    <glyph glyph-name="uni04A2" unicode="&#x4a2;" horiz-adv-x="670" 
d="M80 0v667h102v-264h286v264h102v-571h86v-246h-96v150h-92v307h-286v-307h-102z" />
    <glyph glyph-name="uni04A3" unicode="&#x4a3;" horiz-adv-x="510" 
d="M62 0v421h98v-156h174v156h98v-331h70v-210h-90v120h-78v175h-174v-175h-98z" />
    <glyph glyph-name="uni04A4" unicode="&#x4a4;" horiz-adv-x="816" 
d="M80 0v667h102v-264h286v264h334v-96h-232v-571h-102v307h-286v-307h-102z" />
    <glyph glyph-name="uni04A5" unicode="&#x4a5;" horiz-adv-x="600" 
d="M62 0v421h98v-156h174v156h258v-90h-160v-331h-98v175h-174v-175h-98z" />
    <glyph glyph-name="uni04AA" unicode="&#x4aa;" horiz-adv-x="620" 
d="M574 631v-120c-39 38 -99 74 -181 74c-89 0 -142 -38 -166 -61c-49 -47 -77 -121 -77 -193c0 -73 28 -136 67 -177c36 -38 95 -73 177 -73c39 0 108 8 180 77v-121c-42 -25 -85 -40 -131 -46v-157h-96v159c-64 5 -128 26 -192 86c-78 72 -107 159 -107 252
c0 123 51 208 107 261c69 65 149 87 240 87c88 0 141 -24 179 -48z" />
    <glyph glyph-name="uni04AB" unicode="&#x4ab;" horiz-adv-x="420" 
d="M388 402v-110c-45 44 -89 52 -119 52c-46 0 -75 -19 -93 -37s-36 -50 -36 -97c0 -49 19 -82 38 -101c22 -21 53 -34 89 -34c40 0 87 16 121 54v-109c-26 -17 -53 -26 -79 -28v-122h-90v120c-29 3 -76 15 -119 59c-30 31 -60 82 -60 158c0 79 33 132 64 163
c33 33 86 62 169 62c32 0 70 -5 115 -30z" />
    <glyph glyph-name="uni04AE" unicode="&#x4ae;" horiz-adv-x="540" 
d="M219 0v288l-219 379h116l154 -267l154 267h116l-219 -379v-288h-102z" />
    <glyph glyph-name="uni04AF" unicode="&#x4af;" horiz-adv-x="448" 
d="M6 421h110l108 -237l108 237h110l-169 -350v-300h-98v300z" />
    <glyph glyph-name="uni04B0" unicode="&#x4b0;" horiz-adv-x="540" 
d="M219 0v202h-190v86h190l-219 379h116l154 -267l154 267h116l-219 -379h190v-86h-190v-202h-102z" />
    <glyph glyph-name="uni04B1" unicode="&#x4b1;" horiz-adv-x="448" 
d="M6 421h110l108 -237l108 237h110l-169 -350v-51h130v-86h-130v-163h-98v163h-130v86h130v51z" />
    <glyph glyph-name="uni04B2" unicode="&#x4b2;" horiz-adv-x="570" 
d="M10 0l210 348l-184 319h114l130 -226l133 226h114l-192 -319l145 -252h76v-246h-96v150h-38l-146 255l-152 -255h-114z" />
    <glyph glyph-name="uni04B3" unicode="&#x4b3;" horiz-adv-x="498" 
d="M6 0l186 228l-150 193h116l93 -123l94 123h120l-155 -193l109 -138h71v-210h-90v120h-28l-121 157l-125 -157h-120z" />
    <glyph glyph-name="uni04B6" unicode="&#x4b6;" horiz-adv-x="626" 
d="M424 0v274c-39 -3 -105 -7 -136 -7c-45 0 -116 4 -163 41c-62 49 -65 130 -65 162v197h102v-182c0 -28 0 -75 36 -103c23 -18 60 -21 106 -21c44 0 84 3 120 7v299h102v-571h86v-246h-96v150h-92z" />
    <glyph glyph-name="uni04B7" unicode="&#x4b7;" horiz-adv-x="466" 
d="M290 0v163c-40 -8 -72 -9 -86 -9c-33 0 -77 4 -111 31c-39 31 -41 73 -41 101v135h98v-115c0 -25 5 -46 25 -58c15 -9 39 -10 49 -10c26 0 47 4 66 11v172h98v-331h70v-210h-90v120h-78z" />
    <glyph glyph-name="uni04B8" unicode="&#x4b8;" horiz-adv-x="640" 
d="M458 0v274c-32 -4 -65 -6 -98 -6v-138h-90v138c-33 1 -97 9 -139 40c-62 45 -71 112 -71 162v197h102v-182c0 -30 0 -74 41 -103c20 -14 48 -19 67 -20v148h90v-148c33 0 66 2 98 6v299h102v-667h-102z" />
    <glyph glyph-name="uni04B9" unicode="&#x4b9;" horiz-adv-x="530" 
d="M370 0v161c-23 -4 -45 -7 -68 -8v-88h-80v88c-31 0 -91 6 -124 30c-43 31 -46 77 -46 103v135h98v-115c0 -24 6 -47 32 -58c12 -5 30 -7 40 -7v114h80v-114c24 0 46 3 68 8v172h98v-421h-98z" />
    <glyph glyph-name="uni04BA" unicode="&#x4ba;" horiz-adv-x="606" 
d="M182 667v-264c44 5 86 7 129 7c54 0 123 -4 170 -41c62 -49 65 -129 65 -162v-207h-102v192c0 28 0 75 -36 103c-23 18 -60 21 -106 21c-42 0 -83 -3 -120 -7v-309h-102v667h102z" />
    <glyph glyph-name="uni04BB" unicode="&#x4bb;" horiz-adv-x="486" 
d="M62 0v729h98v-344c42 43 88 47 113 47c77 0 112 -40 124 -57c26 -38 27 -87 27 -117v-258h-98v249c0 25 0 52 -19 73c-11 12 -30 22 -55 22c-33 0 -59 -16 -72 -35c-14 -20 -20 -52 -20 -106v-203h-98z" />
    <glyph glyph-name="uni04C0" unicode="&#x4c0;" horiz-adv-x="262" 
d="M80 667h102v-667h-102v667z" />
    <glyph glyph-name="uni04C1" unicode="&#x4c1;" horiz-adv-x="846" 
d="M372 667h102v-269l238 269h124l-275 -306l281 -361h-126l-226 294l-16 -18v-276h-102v276l-16 18l-226 -294h-126l281 361l-275 306h124l238 -269v269zM256 832l80 36c16 -55 77 -56 85 -56s69 1 85 56l80 -36c-34 -83 -113 -102 -165 -102s-131 19 -165 102z" />
    <glyph glyph-name="uni04C2" unicode="&#x4c2;" horiz-adv-x="624" 
d="M263 421h98v-156l127 156h118l-163 -192l179 -229h-122l-127 169l-12 -14v-155h-98v155l-12 14l-127 -169h-122l179 229l-163 192h118l127 -156v156zM148 603l80 23c17 -58 58 -65 82 -65c43 0 68 20 82 65l80 -23c-23 -83 -105 -118 -162 -118s-139 35 -162 118z" />
    <glyph glyph-name="uni04C3" unicode="&#x4c3;" horiz-adv-x="616" 
d="M80 667h102v-274l258 274h134l-267 -268c63 0 142 -24 192 -75c63 -64 69 -153 69 -208c0 -50 -6 -155 -63 -217c-46 -50 -109 -59 -158 -59c-42 0 -74 8 -105 21l24 93c21 -11 46 -20 79 -20c26 0 54 6 78 30c34 35 43 99 43 145c0 59 -17 119 -51 154
c-41 43 -100 49 -145 49c-31 0 -59 -4 -88 -11v-301h-102v667z" />
    <glyph glyph-name="uni04C4" unicode="&#x4c4;" horiz-adv-x="440" 
d="M62 421h98v-150l140 150h130l-190 -192c47 -5 86 -27 111 -53c26 -28 49 -75 49 -141c0 -86 -38 -143 -77 -178c-30 -27 -77 -56 -143 -65v90c26 4 54 15 78 41c24 25 42 63 42 113c0 32 -10 62 -29 82c-28 29 -70 30 -92 30h-19v-148h-98v421z" />
    <glyph glyph-name="uni04C7" unicode="&#x4c7;" horiz-adv-x="650" 
d="M80 0v667h102v-264h286v264h102v-753c0 -34 -5 -86 -44 -117c-22 -18 -55 -27 -94 -27c-25 0 -46 3 -66 9v92c13 -5 29 -9 47 -9c16 0 35 4 46 22c9 15 9 38 9 60v363h-286v-307h-102z" />
    <glyph glyph-name="uni04C8" unicode="&#x4c8;" horiz-adv-x="494" 
d="M62 0v421h98v-156h174v156h98v-507c0 -38 -4 -86 -44 -117c-23 -18 -56 -27 -90 -27c-35 0 -58 6 -66 9v88c15 -6 32 -9 47 -9c16 0 35 4 46 22c9 15 9 38 9 60v235h-174v-175h-98z" />
    <glyph glyph-name="uni04D0" unicode="&#x4d0;" horiz-adv-x="656" 
d="M542 0l-70 161h-285l-73 -161h-110l332 706l316 -706h-110zM229 257h202l-99 226zM167 832l80 36c16 -55 77 -56 85 -56s69 1 85 56l80 -36c-34 -83 -113 -102 -165 -102s-131 19 -165 102z" />
    <glyph glyph-name="uni04D1" unicode="&#x4d1;" horiz-adv-x="530" 
d="M370 372v49h98v-421h-98v44c-43 -50 -96 -57 -126 -57c-130 0 -204 108 -204 224c0 137 94 221 205 221c31 0 85 -8 125 -60zM257 344c-71 0 -117 -60 -117 -135c0 -73 46 -134 117 -134c62 0 119 45 119 133c0 92 -57 136 -119 136zM88 603l80 23c17 -58 58 -65 82 -65
c43 0 68 20 82 65l80 -23c-23 -83 -105 -118 -162 -118s-139 35 -162 118z" />
    <glyph glyph-name="uni04D2" unicode="&#x4d2;" horiz-adv-x="656" 
d="M542 0l-70 161h-285l-73 -161h-110l332 706l316 -706h-110zM229 257h202l-99 226zM172 795c0 35 27 62 62 62s62 -27 62 -62s-27 -62 -62 -62s-62 27 -62 62zM368 795c0 35 27 62 62 62s62 -27 62 -62s-27 -62 -62 -62s-62 27 -62 62z" />
    <glyph glyph-name="uni04D3" unicode="&#x4d3;" horiz-adv-x="530" 
d="M370 372v49h98v-421h-98v44c-43 -50 -96 -57 -126 -57c-130 0 -204 108 -204 224c0 137 94 221 205 221c31 0 85 -8 125 -60zM257 344c-71 0 -117 -60 -117 -135c0 -73 46 -134 117 -134c62 0 119 45 119 133c0 92 -57 136 -119 136zM98 569c0 35 27 62 62 62
s62 -27 62 -62s-27 -62 -62 -62s-62 27 -62 62zM278 569c0 35 27 62 62 62s62 -27 62 -62s-27 -62 -62 -62s-62 27 -62 62z" />
    <glyph glyph-name="uni04D4" unicode="&#x4d4;" horiz-adv-x="926" 
d="M546 0l-70 159h-283l-73 -159h-110l320 667h295l42 -96h-265l70 -159h258l42 -96h-258l95 -220h265l42 -96h-370zM238 255h198l-95 217z" />
    <glyph glyph-name="uni04D5" unicode="&#x4d5;" horiz-adv-x="756" 
d="M99 328v91c48 11 83 13 119 13c28 0 58 -2 87 -13c30 -11 49 -29 63 -47c15 18 32 32 58 43c31 14 59 17 87 17c50 0 102 -11 144 -55c54 -57 59 -134 59 -178v-12h-302c2 -30 15 -64 36 -85c23 -23 51 -27 75 -27c27 0 47 6 67 21c17 13 30 30 39 46l82 -46
c-18 -32 -44 -60 -71 -77c-33 -21 -79 -32 -126 -32c-24 0 -57 3 -88 18c-32 15 -50 36 -60 50c-16 -19 -41 -40 -68 -52c-33 -14 -74 -16 -89 -16c-47 0 -91 8 -129 45c-30 29 -42 62 -42 96c0 45 19 78 40 98c32 31 82 45 128 45c33 0 71 -7 108 -28c0 33 -10 60 -28 76
c-24 21 -59 25 -86 25c-32 0 -62 -4 -103 -16zM220 187c-21 0 -49 -3 -69 -21c-13 -12 -17 -25 -17 -37c0 -13 7 -28 20 -39c11 -9 31 -19 66 -19c32 0 52 9 63 16c27 17 27 40 27 44c0 10 -5 29 -31 43c-19 10 -37 13 -59 13zM421 267h195c-4 23 -15 43 -30 57
c-22 20 -47 24 -66 24c-30 0 -51 -10 -69 -27c-8 -8 -23 -26 -30 -54z" />
    <glyph glyph-name="uni04D6" unicode="&#x4d6;" 
d="M448 667v-96h-266v-169h258v-96h-258v-210h266v-96h-368v667h368zM100 832l80 36c16 -55 77 -56 85 -56s69 1 85 56l80 -36c-34 -83 -113 -102 -165 -102s-131 19 -165 102z" />
    <glyph glyph-name="uni04D7" unicode="&#x4d7;" horiz-adv-x="482" 
d="M357 142l82 -46c-18 -32 -44 -60 -71 -77c-34 -22 -79 -32 -124 -32c-56 0 -102 14 -142 54s-62 98 -62 161c0 65 23 128 67 173c35 35 81 57 141 57c67 0 110 -29 135 -55c54 -56 59 -134 59 -178v-12h-302c2 -30 15 -64 36 -85c23 -23 51 -27 75 -27c27 0 47 6 67 21
c17 13 30 30 39 46zM147 267h195c-4 23 -15 43 -30 57c-13 12 -34 24 -66 24c-34 0 -56 -14 -69 -27c-14 -13 -25 -33 -30 -54zM79 603l80 23c17 -58 58 -65 82 -65c43 0 68 20 82 65l80 -23c-23 -83 -105 -118 -162 -118s-139 35 -162 118z" />
    <glyph glyph-name="uni04D8" unicode="&#x4d8;" horiz-adv-x="748" 
d="M149 478l-72 66c21 28 43 50 73 71c50 36 113 64 203 64c75 0 172 -19 252 -102c76 -79 95 -173 95 -244c0 -95 -32 -179 -102 -249c-58 -58 -133 -97 -239 -97c-125 0 -202 59 -248 124c-53 75 -63 152 -63 215v31h549c-10 140 -120 228 -244 228
c-106 0 -172 -63 -204 -107zM589 263h-432c4 -41 19 -80 44 -111c26 -32 74 -71 159 -71c78 0 139 33 177 77c25 29 43 66 52 105z" />
    <glyph glyph-name="afii10846" unicode="&#x4d9;" horiz-adv-x="488" 
d="M133 292l-89 30c13 27 35 57 73 80c37 22 76 30 117 30c72 0 119 -24 149 -52c37 -35 65 -95 65 -174c0 -74 -25 -128 -64 -166c-42 -41 -89 -53 -142 -53c-46 0 -94 10 -135 50c-39 38 -67 103 -67 180v25h306c-3 30 -17 60 -35 76c-17 16 -44 26 -78 26
c-28 0 -49 -7 -63 -16c-14 -8 -27 -22 -37 -36zM339 162h-195c3 -24 14 -53 30 -68c15 -15 40 -23 66 -23c34 0 55 13 68 26c15 15 28 38 31 65z" />
    <glyph glyph-name="uni04DA" unicode="&#x4da;" horiz-adv-x="748" 
d="M149 478l-72 66c21 28 43 50 73 71c50 36 113 64 203 64c75 0 172 -19 252 -102c76 -79 95 -173 95 -244c0 -95 -32 -179 -102 -249c-58 -58 -133 -97 -239 -97c-125 0 -202 59 -248 124c-53 75 -63 152 -63 215v31h549c-10 140 -120 228 -244 228
c-106 0 -172 -63 -204 -107zM589 263h-432c4 -41 19 -80 44 -111c26 -32 74 -71 159 -71c78 0 139 33 177 77c25 29 43 66 52 105zM214 795c0 35 27 62 62 62s62 -27 62 -62s-27 -62 -62 -62s-62 27 -62 62zM410 795c0 35 27 62 62 62s62 -27 62 -62s-27 -62 -62 -62
s-62 27 -62 62z" />
    <glyph glyph-name="uni04DB" unicode="&#x4db;" horiz-adv-x="488" 
d="M133 292l-89 30c13 27 35 57 73 80c37 22 76 30 117 30c72 0 119 -24 149 -52c37 -35 65 -95 65 -174c0 -74 -25 -128 -64 -166c-42 -41 -89 -53 -142 -53c-46 0 -94 10 -135 50c-39 38 -67 103 -67 180v25h306c-3 30 -17 60 -35 76c-17 16 -44 26 -78 26
c-28 0 -49 -7 -63 -16c-14 -8 -27 -22 -37 -36zM339 162h-195c3 -24 14 -53 30 -68c15 -15 40 -23 66 -23c34 0 55 13 68 26c15 15 28 38 31 65zM92 569c0 35 27 62 62 62s62 -27 62 -62s-27 -62 -62 -62s-62 27 -62 62zM272 569c0 35 27 62 62 62s62 -27 62 -62
s-27 -62 -62 -62s-62 27 -62 62z" />
    <glyph glyph-name="uni04DC" unicode="&#x4dc;" horiz-adv-x="846" 
d="M372 667h102v-269l238 269h124l-275 -306l281 -361h-126l-226 294l-16 -18v-276h-102v276l-16 18l-226 -294h-126l281 361l-275 306h124l238 -269v269zM263 795c0 35 27 62 62 62s62 -27 62 -62s-27 -62 -62 -62s-62 27 -62 62zM459 795c0 35 27 62 62 62s62 -27 62 -62
s-27 -62 -62 -62s-62 27 -62 62z" />
    <glyph glyph-name="uni04DD" unicode="&#x4dd;" horiz-adv-x="624" 
d="M263 421h98v-156l127 156h118l-163 -192l179 -229h-122l-127 169l-12 -14v-155h-98v155l-12 14l-127 -169h-122l179 229l-163 192h118l127 -156v156zM160 569c0 35 27 62 62 62s62 -27 62 -62s-27 -62 -62 -62s-62 27 -62 62zM340 569c0 35 27 62 62 62s62 -27 62 -62
s-27 -62 -62 -62s-62 27 -62 62z" />
    <glyph glyph-name="uni04DE" unicode="&#x4de;" horiz-adv-x="570" 
d="M137 516l-67 65c33 44 71 65 86 72c40 20 80 25 121 25c48 0 107 -7 155 -53c32 -31 48 -69 48 -117c0 -30 -5 -56 -22 -83c-17 -29 -39 -46 -60 -58c42 -11 71 -35 90 -59c26 -33 34 -70 34 -113c0 -56 -19 -107 -67 -149c-56 -48 -126 -58 -180 -58
c-59 0 -111 12 -164 52c-32 25 -63 61 -85 108l90 46c16 -42 42 -67 62 -81c34 -24 70 -31 110 -31c25 0 70 4 102 36c18 18 32 47 32 82c0 33 -11 59 -39 78c-37 26 -87 26 -121 26h-60v96h54c29 0 72 7 96 27c17 14 30 39 30 68c0 33 -15 56 -32 69c-23 18 -53 20 -77 20
c-31 0 -55 -4 -81 -19c-30 -17 -49 -41 -55 -49zM120 795c0 35 27 62 62 62s62 -27 62 -62s-27 -62 -62 -62s-62 27 -62 62zM316 795c0 35 27 62 62 62s62 -27 62 -62s-27 -62 -62 -62s-62 27 -62 62z" />
    <glyph glyph-name="uni04DF" unicode="&#x4df;" horiz-adv-x="440" 
d="M119 312l-63 55c14 17 35 34 64 47c35 15 72 18 99 18c36 0 73 -5 107 -29c32 -23 44 -50 44 -86c0 -21 -3 -39 -18 -58c-13 -17 -28 -25 -40 -30c23 -5 46 -16 61 -31c22 -22 27 -49 27 -70c0 -39 -12 -69 -36 -93c-33 -33 -80 -48 -148 -48c-30 0 -72 3 -110 25
c-24 14 -50 38 -66 75l78 40c8 -17 21 -34 37 -44c17 -11 40 -16 63 -16c17 0 49 3 67 21c9 10 15 23 15 37s-5 26 -13 34c-17 18 -46 18 -70 18h-44v80h37c14 0 36 3 48 11c8 6 18 16 18 37c0 18 -9 30 -18 36c-14 10 -34 11 -47 11c-20 0 -36 -3 -55 -12
c-12 -6 -25 -15 -37 -28zM78 569c0 35 27 62 62 62s62 -27 62 -62s-27 -62 -62 -62s-62 27 -62 62zM258 569c0 35 27 62 62 62s62 -27 62 -62s-27 -62 -62 -62s-62 27 -62 62z" />
    <glyph glyph-name="uni04E2" unicode="&#x4e2;" horiz-adv-x="712" 
d="M530 0v449l-450 -479v697h102v-451l450 479v-695h-102zM184 733v80h360v-80h-360z" />
    <glyph glyph-name="uni04E3" unicode="&#x4e3;" horiz-adv-x="510" 
d="M62 421h98v-239l288 277v-459h-98v245l-288 -277v453zM90 508v78h330v-78h-330z" />
    <glyph glyph-name="uni04E4" unicode="&#x4e4;" horiz-adv-x="712" 
d="M530 0v449l-450 -479v697h102v-451l450 479v-695h-102zM204 795c0 35 27 62 62 62s62 -27 62 -62s-27 -62 -62 -62s-62 27 -62 62zM400 795c0 35 27 62 62 62s62 -27 62 -62s-27 -62 -62 -62s-62 27 -62 62z" />
    <glyph glyph-name="uni04E5" unicode="&#x4e5;" horiz-adv-x="510" 
d="M62 421h98v-239l288 277v-459h-98v245l-288 -277v453zM103 569c0 35 27 62 62 62s62 -27 62 -62s-27 -62 -62 -62s-62 27 -62 62zM283 569c0 35 27 62 62 62s62 -27 62 -62s-27 -62 -62 -62s-62 27 -62 62z" />
    <glyph glyph-name="uni04E6" unicode="&#x4e6;" horiz-adv-x="790" 
d="M395 679c200 0 347 -150 347 -346s-147 -346 -347 -346s-347 150 -347 346s147 346 347 346zM395 81c143 0 245 104 245 252s-102 252 -245 252s-245 -104 -245 -252s102 -252 245 -252zM235 795c0 35 27 62 62 62s62 -27 62 -62s-27 -62 -62 -62s-62 27 -62 62zM431 795
c0 35 27 62 62 62s62 -27 62 -62s-27 -62 -62 -62s-62 27 -62 62z" />
    <glyph glyph-name="uni04E7" unicode="&#x4e7;" horiz-adv-x="530" 
d="M265 432c127 0 225 -92 225 -222c0 -129 -98 -223 -225 -223s-225 94 -225 223c0 130 98 222 225 222zM265 75c77 0 125 53 125 134c0 96 -63 135 -125 135s-125 -39 -125 -135c0 -81 48 -134 125 -134zM113 569c0 35 27 62 62 62s62 -27 62 -62s-27 -62 -62 -62
s-62 27 -62 62zM293 569c0 35 27 62 62 62s62 -27 62 -62s-27 -62 -62 -62s-62 27 -62 62z" />
    <glyph glyph-name="uni04E8" unicode="&#x4e8;" horiz-adv-x="790" 
d="M395 679c200 0 347 -150 347 -346s-147 -346 -347 -346s-347 150 -347 346s147 346 347 346zM637 287h-484c15 -114 110 -206 242 -206s227 92 242 206zM153 383h484c-16 109 -108 202 -242 202s-226 -93 -242 -202z" />
    <glyph glyph-name="uni04E9" unicode="&#x4e9;" horiz-adv-x="530" 
d="M265 432c127 0 225 -92 225 -222c0 -129 -98 -223 -225 -223s-225 94 -225 223c0 130 98 222 225 222zM386 173h-242c11 -65 62 -98 121 -98s110 33 121 98zM144 253h242c-12 52 -54 91 -121 91s-109 -39 -121 -91z" />
    <glyph glyph-name="uni04EA" unicode="&#x4ea;" horiz-adv-x="790" 
d="M395 679c200 0 347 -150 347 -346s-147 -346 -347 -346s-347 150 -347 346s147 346 347 346zM637 287h-484c15 -114 110 -206 242 -206s227 92 242 206zM153 383h484c-16 109 -108 202 -242 202s-226 -93 -242 -202zM235 795c0 35 27 62 62 62s62 -27 62 -62
s-27 -62 -62 -62s-62 27 -62 62zM431 795c0 35 27 62 62 62s62 -27 62 -62s-27 -62 -62 -62s-62 27 -62 62z" />
    <glyph glyph-name="uni04EB" unicode="&#x4eb;" horiz-adv-x="530" 
d="M265 432c127 0 225 -92 225 -222c0 -129 -98 -223 -225 -223s-225 94 -225 223c0 130 98 222 225 222zM386 173h-242c11 -65 62 -98 121 -98s110 33 121 98zM144 253h242c-12 52 -54 91 -121 91s-109 -39 -121 -91zM113 569c0 35 27 62 62 62s62 -27 62 -62
s-27 -62 -62 -62s-62 27 -62 62zM293 569c0 35 27 62 62 62s62 -27 62 -62s-27 -62 -62 -62s-62 27 -62 62z" />
    <glyph glyph-name="uni04EE" unicode="&#x4ee;" horiz-adv-x="570" 
d="M6 667h124l172 -356l156 356h106l-301 -667h-106l86 189zM114 733v80h360v-80h-360z" />
    <glyph glyph-name="uni04EF" unicode="&#x4ef;" horiz-adv-x="482" 
d="M31 -229l155 295l-180 355h118l120 -246l122 246h110l-335 -650h-110zM76 508v78h330v-78h-330z" />
    <glyph glyph-name="uni04F0" unicode="&#x4f0;" horiz-adv-x="570" 
d="M6 667h124l172 -356l156 356h106l-301 -667h-106l86 189zM134 795c0 35 27 62 62 62s62 -27 62 -62s-27 -62 -62 -62s-62 27 -62 62zM330 795c0 35 27 62 62 62s62 -27 62 -62s-27 -62 -62 -62s-62 27 -62 62z" />
    <glyph glyph-name="uni04F1" unicode="&#x4f1;" horiz-adv-x="482" 
d="M31 -229l155 295l-180 355h118l120 -246l122 246h110l-335 -650h-110zM89 569c0 35 27 62 62 62s62 -27 62 -62s-27 -62 -62 -62s-62 27 -62 62zM269 569c0 35 27 62 62 62s62 -27 62 -62s-27 -62 -62 -62s-62 27 -62 62z" />
    <glyph glyph-name="uni04F2" unicode="&#x4f2;" horiz-adv-x="570" 
d="M6 667h124l172 -356l156 356h106l-301 -667h-106l86 189zM276 906l78 -52l-156 -127l-44 36zM476 906l78 -52l-156 -127l-44 36z" />
    <glyph glyph-name="uni04F3" unicode="&#x4f3;" horiz-adv-x="482" 
d="M31 -229l155 295l-180 355h118l120 -246l122 246h110l-335 -650h-110zM223 675l82 -46l-146 -144l-42 34zM403 675l82 -46l-146 -144l-42 34z" />
    <glyph glyph-name="uni04F4" unicode="&#x4f4;" horiz-adv-x="606" 
d="M424 0v274c-39 -3 -105 -7 -136 -7c-45 0 -116 4 -163 41c-62 49 -65 130 -65 162v197h102v-182c0 -28 0 -75 36 -103c23 -18 60 -21 106 -21c44 0 84 3 120 7v299h102v-667h-102zM143 795c0 35 27 62 62 62s62 -27 62 -62s-27 -62 -62 -62s-62 27 -62 62zM339 795
c0 35 27 62 62 62s62 -27 62 -62s-27 -62 -62 -62s-62 27 -62 62z" />
    <glyph glyph-name="uni04F5" unicode="&#x4f5;" horiz-adv-x="450" 
d="M290 0v163c-40 -8 -72 -9 -86 -9c-33 0 -77 4 -111 31c-39 31 -41 73 -41 101v135h98v-115c0 -25 5 -46 25 -58c15 -9 39 -10 49 -10c26 0 47 4 66 11v172h98v-421h-98zM73 569c0 35 27 62 62 62s62 -27 62 -62s-27 -62 -62 -62s-62 27 -62 62zM253 569c0 35 27 62 62 62
s62 -27 62 -62s-27 -62 -62 -62s-62 27 -62 62z" />
    <glyph glyph-name="uni04F8" unicode="&#x4f8;" horiz-adv-x="740" 
d="M80 0v667h102v-269h76c48 0 116 -8 167 -53c38 -33 63 -86 63 -147s-27 -125 -83 -162c-48 -32 -105 -36 -146 -36h-179zM182 302v-206h72c27 0 134 0 134 101c0 48 -24 105 -132 105h-74zM558 667h102v-667h-102v667zM205 795c0 35 27 62 62 62s62 -27 62 -62
s-27 -62 -62 -62s-62 27 -62 62zM401 795c0 35 27 62 62 62s62 -27 62 -62s-27 -62 -62 -62s-62 27 -62 62z" />
    <glyph glyph-name="uni04F9" unicode="&#x4f9;" horiz-adv-x="580" 
d="M62 0v421h98v-149h56c41 0 89 -1 127 -43c28 -31 33 -67 33 -92c0 -49 -19 -82 -38 -101c-37 -36 -81 -36 -123 -36h-153zM160 84h45c19 0 38 1 51 9c7 5 22 17 22 43c0 21 -9 34 -21 42c-16 10 -36 10 -51 10h-46v-104zM420 0v421h98v-421h-98zM143 569
c0 35 27 62 62 62s62 -27 62 -62s-27 -62 -62 -62s-62 27 -62 62zM323 569c0 35 27 62 62 62s62 -27 62 -62s-27 -62 -62 -62s-62 27 -62 62z" />
    <glyph glyph-name="uni1E9E" unicode="&#x1e9e;" horiz-adv-x="567" 
d="M80 0v480c0 61 24 112 69 151c41 35 94 48 135 48c37 0 85 -8 124 -37s70 -77 73 -137l-116 -115c43 -10 81 -29 110 -60c27 -29 44 -72 44 -127c0 -62 -28 -112 -80 -153c-54 -42 -113 -56 -172 -64v96c30 1 76 10 108 37c33 27 44 61 44 91c0 42 -21 72 -46 89
c-27 19 -73 29 -106 31v60l106 114c-2 20 -8 43 -27 60c-16 15 -41 23 -68 23c-23 0 -49 -8 -67 -26c-20 -20 -29 -44 -29 -75v-486h-102z" />
    <glyph glyph-name="uni2010" unicode="&#x2010;" horiz-adv-x="340" 
d="M50 162v102h240v-102h-240z" />
    <glyph glyph-name="uni2011" unicode="&#x2011;" horiz-adv-x="340" 
d="M50 162v102h240v-102h-240z" />
    <glyph glyph-name="figuredash" unicode="&#x2012;" horiz-adv-x="620" 
d="M70 294v90h480v-90h-480z" />
    <glyph glyph-name="endash" unicode="&#x2013;" horiz-adv-x="620" 
d="M70 168v90h480v-90h-480z" />
    <glyph glyph-name="emdash" unicode="&#x2014;" horiz-adv-x="840" 
d="M70 168v90h700v-90h-700z" />
    <glyph glyph-name="afii00208" unicode="&#x2015;" horiz-adv-x="840" 
d="M70 168v90h700v-90h-700z" />
    <glyph glyph-name="quoteleft" unicode="&#x2018;" horiz-adv-x="290" 
d="M240 667l-102 -254l-88 34l124 247z" />
    <glyph glyph-name="quoteright" unicode="&#x2019;" horiz-adv-x="290" 
d="M50 447l102 254l88 -34l-124 -247z" />
    <glyph glyph-name="quotesinglbase" unicode="&#x201a;" horiz-adv-x="340" 
d="M50 -129l102 254l88 -34l-124 -247z" />
    <glyph glyph-name="quotedblleft" unicode="&#x201c;" horiz-adv-x="462" 
d="M412 667l-102 -254l-86 34l123 247zM238 667l-102 -254l-86 34l123 247z" />
    <glyph glyph-name="quotedblright" unicode="&#x201d;" horiz-adv-x="462" 
d="M50 447l102 254l86 -34l-123 -247zM224 447l102 254l86 -34l-123 -247z" />
    <glyph glyph-name="quotedblbase" unicode="&#x201e;" horiz-adv-x="512" 
d="M50 -129l102 254l86 -34l-123 -247zM224 -129l102 254l86 -34l-123 -247z" />
    <glyph glyph-name="dagger" unicode="&#x2020;" horiz-adv-x="568" 
d="M235 516v213h98v-213h138v-94h-138v-599h-98v599h-138v94h138z" />
    <glyph glyph-name="daggerdbl" unicode="&#x2021;" horiz-adv-x="568" 
d="M235 516v213h98v-213h138v-94h-138v-251h138v-94h-138v-254h-98v254h-138v94h138v251h-138v94h138z" />
    <glyph glyph-name="bullet" unicode="&#x2022;" horiz-adv-x="1000" 
d="M360 340c0 77 63 140 140 140s140 -63 140 -140s-63 -140 -140 -140s-140 63 -140 140z" />
    <glyph glyph-name="ellipsis" unicode="&#x2026;" horiz-adv-x="800" 
d="M80 48c0 33 27 60 60 60s60 -27 60 -60s-27 -60 -60 -60s-60 27 -60 60zM340 48c0 33 27 60 60 60s60 -27 60 -60s-27 -60 -60 -60s-60 27 -60 60zM600 48c0 33 27 60 60 60s60 -27 60 -60s-27 -60 -60 -60s-60 27 -60 60z" />
    <glyph glyph-name="perthousand" unicode="&#x2030;" horiz-adv-x="1200" 
d="M194 673c88 0 161 -71 161 -157c0 -85 -72 -157 -161 -157s-161 72 -161 157c0 86 73 157 161 157zM194 431c55 0 83 46 83 85s-28 85 -83 85s-83 -46 -83 -85s28 -85 83 -85zM191 18l381 660l47 -27l-381 -662zM616 307c88 0 161 -71 161 -157c0 -85 -72 -157 -161 -157
s-161 72 -161 157c0 86 73 157 161 157zM616 65c55 0 83 46 83 85s-28 85 -83 85s-83 -46 -83 -85s28 -85 83 -85zM1006 307c88 0 161 -71 161 -157c0 -85 -72 -157 -161 -157s-161 72 -161 157c0 86 73 157 161 157zM1006 65c55 0 83 46 83 85s-28 85 -83 85
s-83 -46 -83 -85s28 -85 83 -85z" />
    <glyph glyph-name="guilsinglleft" unicode="&#x2039;" horiz-adv-x="321" 
d="M140 219l127 -165l-65 -47l-162 212l162 212l65 -47z" />
    <glyph glyph-name="guilsinglright" unicode="&#x203a;" horiz-adv-x="321" 
d="M181 219l-127 165l65 47l162 -212l-162 -212l-65 47z" />
    <glyph glyph-name="fraction" unicode="&#x2044;" horiz-adv-x="230" 
d="M-100 17l382 661l48 -28l-382 -661z" />
    <glyph glyph-name="uni2070" unicode="&#x2070;" horiz-adv-x="370" 
d="M185 260c-31 0 -66 10 -98 44c-30 33 -55 87 -55 163s25 130 55 163c32 34 67 44 98 44s66 -10 98 -44c30 -33 55 -87 55 -163s-25 -130 -55 -163c-32 -34 -67 -44 -98 -44zM185 608c-19 0 -39 -11 -53 -30c-22 -30 -28 -79 -28 -111s6 -81 28 -111c14 -19 34 -30 53 -30
s39 11 53 30c22 30 28 79 28 111s-6 81 -28 111c-14 19 -34 30 -53 30z" />
    <glyph glyph-name="uni2074" unicode="&#x2074;" horiz-adv-x="370" 
d="M295 697v-307h43v-66h-43v-57h-72v57h-209zM139 390h84v114z" />
    <glyph glyph-name="uni2075" unicode="&#x2075;" horiz-adv-x="370" 
d="M299 667v-66h-126l-17 -61c6 1 12 1 19 1c34 0 69 -9 95 -29c24 -19 48 -52 48 -105c0 -89 -66 -147 -158 -147c-29 0 -94 5 -140 85l56 39c6 -14 26 -58 85 -58c56 0 85 35 85 78c0 45 -31 77 -85 77c-40 0 -62 -17 -76 -34h-27l66 220h175z" />
    <glyph glyph-name="uni2076" unicode="&#x2076;" horiz-adv-x="370" 
d="M212 691l61 -43l-89 -128c6 1 12 1 18 1c61 0 128 -34 128 -123c0 -80 -58 -138 -145 -138c-97 0 -145 65 -145 129c0 51 22 86 33 102zM184 457c-40 0 -72 -26 -72 -66c0 -38 31 -67 73 -67s73 29 73 67c0 39 -31 66 -74 66z" />
    <glyph glyph-name="uni2077" unicode="&#x2077;" horiz-adv-x="370" 
d="M34 283l194 318h-192v66h318l-252 -414z" />
    <glyph glyph-name="uni2078" unicode="&#x2078;" horiz-adv-x="370" 
d="M185 674c81 0 126 -56 126 -114c0 -35 -16 -65 -44 -85c44 -20 55 -64 55 -94c0 -77 -65 -121 -137 -121s-137 44 -137 121c0 30 11 74 55 94c-28 20 -44 50 -44 85c0 58 45 114 126 114zM185 610c-39 0 -58 -27 -58 -53c0 -24 18 -51 58 -51c39 0 58 26 58 51
c0 26 -19 53 -58 53zM185 442c-43 0 -65 -29 -65 -59c0 -28 20 -59 65 -59s65 31 65 59c0 30 -22 59 -65 59z" />
    <glyph glyph-name="uni2079" unicode="&#x2079;" horiz-adv-x="370" 
d="M158 243l-61 43l89 128c-6 -1 -11 -1 -17 -1c-62 0 -129 40 -129 122c0 81 58 139 145 139c97 0 145 -65 145 -129c0 -24 -6 -64 -33 -102zM186 477c40 0 72 26 72 66c0 38 -31 67 -73 67s-73 -29 -73 -67c0 -39 31 -66 74 -66z" />
    <glyph glyph-name="uni2080" unicode="&#x2080;" horiz-adv-x="370" 
d="M185 -7c-31 0 -66 10 -98 44c-30 33 -55 87 -55 163s25 130 55 163c32 34 67 44 98 44s66 -10 98 -44c30 -33 55 -87 55 -163s-25 -130 -55 -163c-32 -34 -67 -44 -98 -44zM185 341c-19 0 -39 -11 -53 -30c-22 -30 -28 -79 -28 -111s6 -81 28 -111c14 -19 34 -30 53 -30
s39 11 53 30c22 30 28 79 28 111s-6 81 -28 111c-14 19 -34 30 -53 30z" />
    <glyph glyph-name="uni2081" unicode="&#x2081;" horiz-adv-x="370" 
d="M162 0v334h-78l42 66h110v-400h-74z" />
    <glyph glyph-name="uni2082" unicode="&#x2082;" horiz-adv-x="370" 
d="M314 66v-66h-290l146 162c15 17 37 43 50 62c12 17 21 34 21 57c0 37 -27 60 -63 60c-47 0 -69 -39 -73 -73h-70c2 34 14 70 37 96c34 38 77 43 103 43c90 0 138 -59 138 -124c0 -31 -13 -57 -30 -85c-21 -33 -37 -50 -55 -70l-55 -62h141z" />
    <glyph glyph-name="uni2083" unicode="&#x2083;" horiz-adv-x="370" 
d="M115 286h-70c2 24 10 51 23 70c15 23 48 51 110 51c90 0 127 -55 127 -112c0 -13 -1 -62 -52 -84c11 -4 59 -24 59 -91c0 -66 -45 -127 -141 -127c-61 0 -106 26 -128 78c-6 15 -10 30 -11 48h70c6 -60 61 -60 69 -60c48 0 69 30 69 62c0 16 -6 58 -69 58h-24v66h24
c22 0 63 2 63 47c0 33 -24 49 -58 49c-38 0 -59 -23 -61 -55z" />
    <glyph glyph-name="uni2084" unicode="&#x2084;" horiz-adv-x="370" 
d="M295 430v-307h43v-66h-43v-57h-72v57h-209zM139 123h84v114z" />
    <glyph glyph-name="uni2085" unicode="&#x2085;" horiz-adv-x="370" 
d="M299 400v-66h-126l-17 -61c6 1 12 1 19 1c34 0 69 -9 95 -29c24 -19 48 -52 48 -105c0 -89 -66 -147 -158 -147c-29 0 -94 5 -140 85l56 39c6 -14 26 -58 85 -58c56 0 85 35 85 78c0 45 -31 77 -85 77c-40 0 -62 -17 -76 -34h-27l66 220h175z" />
    <glyph glyph-name="uni2086" unicode="&#x2086;" horiz-adv-x="370" 
d="M212 424l61 -43l-89 -128c6 1 12 1 18 1c61 0 128 -34 128 -123c0 -80 -58 -138 -145 -138c-97 0 -145 65 -145 129c0 51 22 86 33 102zM184 190c-40 0 -72 -26 -72 -66c0 -38 31 -67 73 -67s73 29 73 67c0 39 -31 66 -74 66z" />
    <glyph glyph-name="uni2087" unicode="&#x2087;" horiz-adv-x="370" 
d="M34 16l194 318h-192v66h318l-252 -414z" />
    <glyph glyph-name="uni2088" unicode="&#x2088;" horiz-adv-x="370" 
d="M185 407c81 0 126 -56 126 -114c0 -35 -16 -65 -44 -85c44 -20 55 -64 55 -94c0 -77 -65 -121 -137 -121s-137 44 -137 121c0 30 11 74 55 94c-28 20 -44 50 -44 85c0 58 45 114 126 114zM185 343c-39 0 -58 -27 -58 -53c0 -24 18 -51 58 -51c39 0 58 26 58 51
c0 26 -19 53 -58 53zM185 175c-43 0 -65 -29 -65 -59c0 -28 20 -59 65 -59s65 31 65 59c0 30 -22 59 -65 59z" />
    <glyph glyph-name="uni2089" unicode="&#x2089;" horiz-adv-x="370" 
d="M158 -24l-61 43l89 128c-6 -1 -11 -1 -17 -1c-62 0 -129 40 -129 122c0 81 58 139 145 139c97 0 145 -65 145 -129c0 -24 -6 -64 -33 -102zM186 210c40 0 72 26 72 66c0 38 -31 67 -73 67s-73 -29 -73 -67c0 -39 31 -66 74 -66z" />
    <glyph glyph-name="Euro" unicode="&#x20ac;" horiz-adv-x="568" 
d="M542 641l-43 -89c-32 22 -69 33 -118 33c-104 0 -184 -50 -214 -139h291l-30 -70h-275c-3 -23 -4 -48 -1 -74h247l-30 -70h-207c23 -95 109 -151 210 -151c47 0 105 14 160 57v-109c-60 -31 -121 -42 -163 -42c-83 0 -169 24 -229 82c-20 19 -69 73 -82 163h-68l30 70h30
c-3 26 -2 51 1 74h-61l30 70h41c14 55 43 107 82 146c78 77 176 87 241 87s113 -12 158 -38z" />
    <glyph glyph-name="uni20B4" unicode="&#x20b4;" horiz-adv-x="568" 
d="M80 567c29 39 61 63 83 76c45 28 85 36 133 36c33 0 81 -4 120 -36c25 -20 44 -51 44 -90c0 -47 -27 -85 -47 -106h111v-70h-164l-72 -74h236v-70h-297c-29 -25 -41 -59 -41 -83s12 -40 22 -49c20 -17 48 -20 68 -20c34 0 63 7 93 31c26 21 40 44 47 62l85 -40
c-15 -38 -38 -68 -72 -95c-50 -40 -97 -52 -161 -52c-39 0 -85 5 -124 33c-33 23 -60 62 -60 114c0 26 8 64 39 99h-83v70h138l72 74h-210v70h269c18 13 49 43 49 80c0 14 -5 31 -16 41c-16 15 -40 17 -55 17c-30 0 -50 -7 -73 -20c-22 -13 -38 -26 -52 -46z" />
    <glyph glyph-name="uni20B6" unicode="&#x20b6;" horiz-adv-x="568" 
d="M281 667c41 0 98 -4 146 -36c57 -37 83 -102 83 -156c0 -51 -20 -104 -53 -137c-29 -29 -83 -61 -175 -61h-46v-74h158v-70h-158v-133h-102v133h-73v70h73v74h-73v88h73v302h147zM236 573v-208h46c45 0 83 13 104 34c12 12 26 34 26 71s-16 60 -28 72
c-29 28 -66 31 -103 31h-45z" />
    <glyph glyph-name="uni20B6" unicode="&#x20cf;" horiz-adv-x="568" 
d="M281 667c41 0 98 -4 146 -36c57 -37 83 -102 83 -156c0 -51 -20 -104 -53 -137c-29 -29 -83 -61 -175 -61h-46v-74h158v-70h-158v-133h-102v133h-73v70h73v74h-73v88h73v302h147zM236 573v-208h46c45 0 83 13 104 34c12 12 26 34 26 71s-16 60 -28 72
c-29 28 -66 31 -103 31h-45z" />
    <glyph glyph-name="uni20B6" unicode="&#x20ce;" horiz-adv-x="568" 
d="M281 667c41 0 98 -4 146 -36c57 -37 83 -102 83 -156c0 -51 -20 -104 -53 -137c-29 -29 -83 -61 -175 -61h-46v-74h158v-70h-158v-133h-102v133h-73v70h73v74h-73v88h73v302h147zM236 573v-208h46c45 0 83 13 104 34c12 12 26 34 26 71s-16 60 -28 72
c-29 28 -66 31 -103 31h-45z" />
    <glyph glyph-name="uni20B6" unicode="&#x20cd;" horiz-adv-x="568" 
d="M281 667c41 0 98 -4 146 -36c57 -37 83 -102 83 -156c0 -51 -20 -104 -53 -137c-29 -29 -83 -61 -175 -61h-46v-74h158v-70h-158v-133h-102v133h-73v70h73v74h-73v88h73v302h147zM236 573v-208h46c45 0 83 13 104 34c12 12 26 34 26 71s-16 60 -28 72
c-29 28 -66 31 -103 31h-45z" />
    <glyph glyph-name="uni20B6" unicode="&#x20cc;" horiz-adv-x="568" 
d="M281 667c41 0 98 -4 146 -36c57 -37 83 -102 83 -156c0 -51 -20 -104 -53 -137c-29 -29 -83 -61 -175 -61h-46v-74h158v-70h-158v-133h-102v133h-73v70h73v74h-73v88h73v302h147zM236 573v-208h46c45 0 83 13 104 34c12 12 26 34 26 71s-16 60 -28 72
c-29 28 -66 31 -103 31h-45z" />
    <glyph glyph-name="uni20B6" unicode="&#x20cb;" horiz-adv-x="568" 
d="M281 667c41 0 98 -4 146 -36c57 -37 83 -102 83 -156c0 -51 -20 -104 -53 -137c-29 -29 -83 -61 -175 -61h-46v-74h158v-70h-158v-133h-102v133h-73v70h73v74h-73v88h73v302h147zM236 573v-208h46c45 0 83 13 104 34c12 12 26 34 26 71s-16 60 -28 72
c-29 28 -66 31 -103 31h-45z" />
    <glyph glyph-name="uni20B6" unicode="&#x20ca;" horiz-adv-x="568" 
d="M281 667c41 0 98 -4 146 -36c57 -37 83 -102 83 -156c0 -51 -20 -104 -53 -137c-29 -29 -83 -61 -175 -61h-46v-74h158v-70h-158v-133h-102v133h-73v70h73v74h-73v88h73v302h147zM236 573v-208h46c45 0 83 13 104 34c12 12 26 34 26 71s-16 60 -28 72
c-29 28 -66 31 -103 31h-45z" />
    <glyph glyph-name="uni20B6" unicode="&#x20c9;" horiz-adv-x="568" 
d="M281 667c41 0 98 -4 146 -36c57 -37 83 -102 83 -156c0 -51 -20 -104 -53 -137c-29 -29 -83 -61 -175 -61h-46v-74h158v-70h-158v-133h-102v133h-73v70h73v74h-73v88h73v302h147zM236 573v-208h46c45 0 83 13 104 34c12 12 26 34 26 71s-16 60 -28 72
c-29 28 -66 31 -103 31h-45z" />
    <glyph glyph-name="uni20B6" unicode="&#x20c8;" horiz-adv-x="568" 
d="M281 667c41 0 98 -4 146 -36c57 -37 83 -102 83 -156c0 -51 -20 -104 -53 -137c-29 -29 -83 -61 -175 -61h-46v-74h158v-70h-158v-133h-102v133h-73v70h73v74h-73v88h73v302h147zM236 573v-208h46c45 0 83 13 104 34c12 12 26 34 26 71s-16 60 -28 72
c-29 28 -66 31 -103 31h-45z" />
    <glyph glyph-name="uni20B6" unicode="&#x20c7;" horiz-adv-x="568" 
d="M281 667c41 0 98 -4 146 -36c57 -37 83 -102 83 -156c0 -51 -20 -104 -53 -137c-29 -29 -83 -61 -175 -61h-46v-74h158v-70h-158v-133h-102v133h-73v70h73v74h-73v88h73v302h147zM236 573v-208h46c45 0 83 13 104 34c12 12 26 34 26 71s-16 60 -28 72
c-29 28 -66 31 -103 31h-45z" />
    <glyph glyph-name="uni20B6" unicode="&#x20c6;" horiz-adv-x="568" 
d="M281 667c41 0 98 -4 146 -36c57 -37 83 -102 83 -156c0 -51 -20 -104 -53 -137c-29 -29 -83 -61 -175 -61h-46v-74h158v-70h-158v-133h-102v133h-73v70h73v74h-73v88h73v302h147zM236 573v-208h46c45 0 83 13 104 34c12 12 26 34 26 71s-16 60 -28 72
c-29 28 -66 31 -103 31h-45z" />
    <glyph glyph-name="uni20B6" unicode="&#x20c5;" horiz-adv-x="568" 
d="M281 667c41 0 98 -4 146 -36c57 -37 83 -102 83 -156c0 -51 -20 -104 -53 -137c-29 -29 -83 -61 -175 -61h-46v-74h158v-70h-158v-133h-102v133h-73v70h73v74h-73v88h73v302h147zM236 573v-208h46c45 0 83 13 104 34c12 12 26 34 26 71s-16 60 -28 72
c-29 28 -66 31 -103 31h-45z" />
    <glyph glyph-name="uni20B6" unicode="&#x20c4;" horiz-adv-x="568" 
d="M281 667c41 0 98 -4 146 -36c57 -37 83 -102 83 -156c0 -51 -20 -104 -53 -137c-29 -29 -83 -61 -175 -61h-46v-74h158v-70h-158v-133h-102v133h-73v70h73v74h-73v88h73v302h147zM236 573v-208h46c45 0 83 13 104 34c12 12 26 34 26 71s-16 60 -28 72
c-29 28 -66 31 -103 31h-45z" />
    <glyph glyph-name="uni20B6" unicode="&#x20c3;" horiz-adv-x="568" 
d="M281 667c41 0 98 -4 146 -36c57 -37 83 -102 83 -156c0 -51 -20 -104 -53 -137c-29 -29 -83 -61 -175 -61h-46v-74h158v-70h-158v-133h-102v133h-73v70h73v74h-73v88h73v302h147zM236 573v-208h46c45 0 83 13 104 34c12 12 26 34 26 71s-16 60 -28 72
c-29 28 -66 31 -103 31h-45z" />
    <glyph glyph-name="uni20B6" unicode="&#x20c2;" horiz-adv-x="568" 
d="M281 667c41 0 98 -4 146 -36c57 -37 83 -102 83 -156c0 -51 -20 -104 -53 -137c-29 -29 -83 -61 -175 -61h-46v-74h158v-70h-158v-133h-102v133h-73v70h73v74h-73v88h73v302h147zM236 573v-208h46c45 0 83 13 104 34c12 12 26 34 26 71s-16 60 -28 72
c-29 28 -66 31 -103 31h-45z" />
    <glyph glyph-name="uni20B6" unicode="&#x20c1;" horiz-adv-x="568" 
d="M281 667c41 0 98 -4 146 -36c57 -37 83 -102 83 -156c0 -51 -20 -104 -53 -137c-29 -29 -83 -61 -175 -61h-46v-74h158v-70h-158v-133h-102v133h-73v70h73v74h-73v88h73v302h147zM236 573v-208h46c45 0 83 13 104 34c12 12 26 34 26 71s-16 60 -28 72
c-29 28 -66 31 -103 31h-45z" />
    <glyph glyph-name="uni20B6" unicode="&#x20c0;" horiz-adv-x="568" 
d="M281 667c41 0 98 -4 146 -36c57 -37 83 -102 83 -156c0 -51 -20 -104 -53 -137c-29 -29 -83 -61 -175 -61h-46v-74h158v-70h-158v-133h-102v133h-73v70h73v74h-73v88h73v302h147zM236 573v-208h46c45 0 83 13 104 34c12 12 26 34 26 71s-16 60 -28 72
c-29 28 -66 31 -103 31h-45z" />
    <glyph glyph-name="uni20B6" unicode="&#x20bf;" horiz-adv-x="568" 
d="M281 667c41 0 98 -4 146 -36c57 -37 83 -102 83 -156c0 -51 -20 -104 -53 -137c-29 -29 -83 -61 -175 -61h-46v-74h158v-70h-158v-133h-102v133h-73v70h73v74h-73v88h73v302h147zM236 573v-208h46c45 0 83 13 104 34c12 12 26 34 26 71s-16 60 -28 72
c-29 28 -66 31 -103 31h-45z" />
    <glyph glyph-name="uni20B6" unicode="&#x20be;" horiz-adv-x="568" 
d="M281 667c41 0 98 -4 146 -36c57 -37 83 -102 83 -156c0 -51 -20 -104 -53 -137c-29 -29 -83 -61 -175 -61h-46v-74h158v-70h-158v-133h-102v133h-73v70h73v74h-73v88h73v302h147zM236 573v-208h46c45 0 83 13 104 34c12 12 26 34 26 71s-16 60 -28 72
c-29 28 -66 31 -103 31h-45z" />
    <glyph glyph-name="uni20B6" unicode="&#x20bd;" horiz-adv-x="568" 
d="M281 667c41 0 98 -4 146 -36c57 -37 83 -102 83 -156c0 -51 -20 -104 -53 -137c-29 -29 -83 -61 -175 -61h-46v-74h158v-70h-158v-133h-102v133h-73v70h73v74h-73v88h73v302h147zM236 573v-208h46c45 0 83 13 104 34c12 12 26 34 26 71s-16 60 -28 72
c-29 28 -66 31 -103 31h-45z" />
    <glyph glyph-name="uni20B6" unicode="&#x20bc;" horiz-adv-x="568" 
d="M281 667c41 0 98 -4 146 -36c57 -37 83 -102 83 -156c0 -51 -20 -104 -53 -137c-29 -29 -83 -61 -175 -61h-46v-74h158v-70h-158v-133h-102v133h-73v70h73v74h-73v88h73v302h147zM236 573v-208h46c45 0 83 13 104 34c12 12 26 34 26 71s-16 60 -28 72
c-29 28 -66 31 -103 31h-45z" />
    <glyph glyph-name="uni20B6" unicode="&#x20bb;" horiz-adv-x="568" 
d="M281 667c41 0 98 -4 146 -36c57 -37 83 -102 83 -156c0 -51 -20 -104 -53 -137c-29 -29 -83 -61 -175 -61h-46v-74h158v-70h-158v-133h-102v133h-73v70h73v74h-73v88h73v302h147zM236 573v-208h46c45 0 83 13 104 34c12 12 26 34 26 71s-16 60 -28 72
c-29 28 -66 31 -103 31h-45z" />
    <glyph glyph-name="uni20B6" unicode="&#x20ba;" horiz-adv-x="568" 
d="M281 667c41 0 98 -4 146 -36c57 -37 83 -102 83 -156c0 -51 -20 -104 -53 -137c-29 -29 -83 -61 -175 -61h-46v-74h158v-70h-158v-133h-102v133h-73v70h73v74h-73v88h73v302h147zM236 573v-208h46c45 0 83 13 104 34c12 12 26 34 26 71s-16 60 -28 72
c-29 28 -66 31 -103 31h-45z" />
    <glyph glyph-name="uni20B6" unicode="&#x20b9;" horiz-adv-x="568" 
d="M281 667c41 0 98 -4 146 -36c57 -37 83 -102 83 -156c0 -51 -20 -104 -53 -137c-29 -29 -83 -61 -175 -61h-46v-74h158v-70h-158v-133h-102v133h-73v70h73v74h-73v88h73v302h147zM236 573v-208h46c45 0 83 13 104 34c12 12 26 34 26 71s-16 60 -28 72
c-29 28 -66 31 -103 31h-45z" />
    <glyph glyph-name="uni20B6" unicode="&#x20b7;" horiz-adv-x="568" 
d="M281 667c41 0 98 -4 146 -36c57 -37 83 -102 83 -156c0 -51 -20 -104 -53 -137c-29 -29 -83 -61 -175 -61h-46v-74h158v-70h-158v-133h-102v133h-73v70h73v74h-73v88h73v302h147zM236 573v-208h46c45 0 83 13 104 34c12 12 26 34 26 71s-16 60 -28 72
c-29 28 -66 31 -103 31h-45z" />
    <glyph glyph-name="uni20B8" unicode="&#x20b8;" horiz-adv-x="568" 
d="M488 441h-153v-441h-102v441h-153v96h408v-96zM488 581h-408v86h408v-86z" />
    <glyph glyph-name="afii61352" unicode="&#x2116;" horiz-adv-x="1060" 
d="M182 0h-102v712l444 -483v438h102v-708l-444 483v-442zM857 667c88 0 161 -71 161 -157c0 -85 -72 -157 -161 -157s-161 72 -161 157c0 86 73 157 161 157zM857 425c55 0 83 46 83 85s-28 85 -83 85s-83 -46 -83 -85s28 -85 83 -85zM716 203v80h282v-80h-282z" />
    <glyph glyph-name="uni2117" unicode="&#x2117;" horiz-adv-x="758" 
d="M274 527h109c23 0 64 -2 94 -31c18 -17 30 -45 30 -80c0 -28 -9 -60 -28 -80c-29 -31 -71 -35 -112 -35h-22v-148h-71v374zM345 464v-104h14c19 0 43 2 60 15c13 10 18 25 18 41c0 23 -12 34 -19 39c-9 6 -23 9 -49 9h-24zM379 630c-95 0 -163 -41 -206 -84
c-52 -52 -84 -122 -84 -213s32 -161 84 -213c43 -43 111 -84 206 -84s163 41 206 84c52 52 84 122 84 213s-32 161 -84 213c-43 43 -111 84 -206 84zM725 333c0 -104 -40 -191 -98 -249c-56 -56 -141 -98 -248 -98s-192 42 -248 98c-58 58 -98 145 -98 249s40 191 98 249
c56 56 141 98 248 98s192 -42 248 -98c58 -58 98 -145 98 -249z" />
    <glyph glyph-name="trademark" unicode="&#x2122;" horiz-adv-x="710" 
d="M238 601h-84v-314h-70v314h-84v66h238v-66zM331 287h-71l82 414l126 -280l127 280l81 -414h-71l-35 206l-102 -213l-102 213z" />
    <glyph glyph-name="partialdiff" unicode="&#x2202;" horiz-adv-x="530" 
d="M96 586l18 87c68 -8 146 -30 213 -76c55 -38 93 -84 118 -135c39 -77 45 -157 45 -212c0 -74 -14 -151 -66 -204c-47 -47 -105 -59 -157 -59c-67 0 -118 18 -162 63c-46 47 -65 102 -65 160c0 80 32 132 64 164s78 58 142 58c45 0 94 -14 131 -47
c-24 86 -79 127 -114 148c-43 26 -101 48 -167 53zM265 75c45 0 72 16 86 30c23 22 39 62 39 104c0 61 -28 93 -40 104c-19 17 -48 31 -85 31c-38 0 -66 -13 -85 -31c-11 -11 -40 -43 -40 -104c0 -52 19 -86 40 -105c9 -8 36 -29 85 -29z" />
    <glyph glyph-name="product" unicode="&#x220f;" horiz-adv-x="714" 
d="M38 654v96h638v-96h-80v-808h80v-96h-263v96h81v808h-273v-808h80v-96h-263v96h81v808h-81z" />
    <glyph glyph-name="summation" unicode="&#x2211;" horiz-adv-x="700" 
d="M32 750h598v-245h-94v149h-364l220 -382l-220 -426h372v147h94v-243h-606v46l252 476l-252 432v46z" />
    <glyph glyph-name="minus" unicode="&#x2212;" 
d="M33 291v90h434v-90h-434z" />
    <glyph glyph-name="uni2215" unicode="&#x2215;" horiz-adv-x="684" 
d="M0 -177l526 942l80 -36l-526 -942z" />
    <glyph glyph-name="uni2219" unicode="&#x2219;" horiz-adv-x="200" 
d="M22 340c0 44 34 78 78 78s78 -34 78 -78s-34 -78 -78 -78s-78 34 -78 78z" />
    <glyph glyph-name="radical" unicode="&#x221a;" horiz-adv-x="668" 
d="M394 827h274v-88h-190l-193 -739h-126l-71 286h-88v88h168l50 -251h8z" />
    <glyph glyph-name="infinity" unicode="&#x221e;" horiz-adv-x="670" 
d="M335 275c-23 -32 -77 -93 -162 -93c-91 0 -155 65 -155 157c0 94 64 159 156 159c72 0 128 -44 161 -93c33 49 89 93 161 93c92 0 156 -65 156 -159c0 -92 -64 -157 -155 -157c-85 0 -139 61 -162 93zM482 410c-39 0 -77 -36 -98 -70c22 -38 60 -70 98 -70
c41 0 71 30 71 70c0 39 -32 70 -71 70zM188 270c38 0 76 32 98 70c-21 34 -59 70 -98 70s-71 -31 -71 -70c0 -40 30 -70 71 -70z" />
    <glyph glyph-name="integral" unicode="&#x222b;" 
d="M75 -239l18 86c20 -11 35 -13 53 -13c11 0 28 2 40 15c14 15 14 44 14 87v618c0 53 -1 109 33 150c25 29 67 46 117 46c16 0 47 -2 75 -11l-18 -86c-20 11 -35 13 -53 13c-11 0 -28 -2 -40 -15c-14 -15 -14 -44 -14 -87v-618c0 -53 1 -109 -33 -150
c-25 -29 -67 -46 -117 -46c-16 0 -47 2 -75 11z" />
    <glyph glyph-name="approxequal" unicode="&#x2248;" 
d="M435 505l57 -33c-11 -26 -33 -67 -66 -93c-31 -24 -59 -28 -83 -28c-35 0 -60 10 -112 32c-40 17 -66 26 -87 26c-24 0 -40 -10 -51 -22c-2 -2 -18 -18 -29 -45l-56 36c5 12 23 53 50 83c15 17 45 42 92 42c14 0 45 -3 110 -31c28 -12 59 -28 93 -28c26 0 38 8 49 18
c13 11 24 25 33 43zM435 323l57 -33c-11 -26 -33 -67 -66 -93c-31 -24 -59 -28 -83 -28c-35 0 -60 10 -112 32c-40 17 -66 26 -87 26c-24 0 -40 -10 -51 -22c-2 -2 -18 -18 -29 -45l-56 36c5 12 23 53 50 83c15 17 45 42 92 42c14 0 45 -3 110 -31c28 -12 59 -28 93 -28
c26 0 38 8 49 18c13 11 24 25 33 43z" />
    <glyph glyph-name="notequal" unicode="&#x2260;" 
d="M33 380v84h238l52 110h78l-52 -110h118v-84h-158l-37 -78h195v-84h-235l-55 -116h-78l55 116h-121v84h161l37 78h-198z" />
    <glyph glyph-name="lessequal" unicode="&#x2264;" 
d="M137 391l330 -149v-92l-434 200v82l434 200v-92zM467 32h-434v90h434v-90z" />
    <glyph glyph-name="greaterequal" unicode="&#x2265;" 
d="M363 391l-330 149v92l434 -200v-82l-434 -200v92zM467 32h-434v90h434v-90z" />
    <glyph glyph-name="dotmath" unicode="&#x22c5;" horiz-adv-x="200" 
d="M22 340c0 44 34 78 78 78s78 -34 78 -78s-34 -78 -78 -78s-78 34 -78 78z" />
    <glyph glyph-name="lozenge" unicode="&#x25ca;" horiz-adv-x="700" 
d="M90 334l260 360l260 -360l-260 -360zM496 334l-146 202l-146 -202l146 -202z" />
    <glyph glyph-name="openbullet" unicode="&#x25e6;" 
d="M104 522c0 81 63 145 146 145s146 -64 146 -145s-63 -145 -146 -145s-146 64 -146 145zM166 522c0 -50 37 -87 84 -87s84 37 84 87s-37 87 -84 87s-84 -37 -84 -87z" />
    <glyph glyph-name="uniF400" unicode="&#xf400;" horiz-adv-x="2" 
d="M-173 675l90 -46l-156 -144l-54 34z" />
    <glyph glyph-name="uniF401" unicode="&#xf401;" horiz-adv-x="2" 
d="M-314 727l-48 40l138 139l86 -60z" />
    <glyph glyph-name="uniF406" unicode="&#xf406;" 
d="M338 874h82c-6 -31 -21 -63 -40 -86s-61 -58 -130 -58s-111 35 -130 58s-34 55 -40 86h82c6 -21 19 -39 34 -49c19 -13 38 -15 54 -15s35 2 54 15c15 10 28 28 34 49z" />
    <glyph glyph-name="uniF407" unicode="&#xf407;" 
d="M290 -53l86 -38l-112 -133l-64 32z" />
    <glyph glyph-name="uniF408" unicode="&#xf408;" 
d="M250 812l-99 -82l-66 56l165 134l165 -134l-66 -56z" />
    <glyph glyph-name="uniF409" unicode="&#xf409;" 
d="M170 -242l72 192l88 -34l-90 -186z" />
    <glyph glyph-name="uniF40A" unicode="&#xf40a;" 
d="M150 468l82 212l88 -34l-104 -206z" />
    <glyph glyph-name="uniF40B" unicode="&#xf40b;" 
d="M183 801c0 38 29 67 67 67s67 -29 67 -67s-29 -67 -67 -67s-67 29 -67 67z" />
    <glyph glyph-name="uniF40C" unicode="&#xf40c;" 
d="M153 823c0 55 45 97 97 97c54 0 97 -43 97 -97c0 -52 -42 -97 -97 -97c-53 0 -97 44 -97 97zM207 823c0 -24 19 -43 43 -43s43 19 43 43s-19 43 -43 43s-43 -19 -43 -43z" />
    <glyph glyph-name="uniF40D" unicode="&#xf40d;" 
d="M372 863l58 -46c-23 -47 -57 -84 -116 -84c-24 0 -38 5 -55 13c-30 14 -29 15 -42 20c-11 4 -25 9 -37 9c-14 0 -37 -4 -51 -42l-59 41c9 16 25 39 42 54c27 23 54 27 70 27s34 -4 49 -9c7 -3 21 -8 46 -21c12 -6 26 -14 41 -14c22 0 44 17 54 52z" />
    <glyph glyph-name="uniF40E" unicode="&#xf40e;" 
d="M246 0h78c-26 -14 -43 -30 -51 -39c-12 -13 -21 -26 -21 -45c0 -30 29 -31 40 -31c23 0 44 5 52 7l-9 -70c-21 -10 -47 -15 -66 -15c-52 0 -99 33 -99 88c0 27 12 48 26 64c12 14 32 30 50 41z" />
    <glyph glyph-name="uniF4C6" unicode="&#xf4c6;" horiz-adv-x="606" 
d="M60 667h102v-182c0 -28 0 -75 36 -103c23 -18 60 -21 106 -21c44 0 84 3 120 7v299h102v-753c0 -34 -5 -86 -44 -117c-22 -18 -55 -27 -94 -27c-25 0 -46 3 -66 9v92c13 -5 29 -9 47 -9c16 0 35 4 46 22c9 15 9 38 9 60v330c-39 -3 -105 -7 -136 -7c-45 0 -116 4 -163 41
c-62 49 -65 130 -65 162v197z" />
    <glyph glyph-name="uniF4C7" unicode="&#xf4c7;" horiz-adv-x="450" 
d="M290 421h98v-507c0 -38 -4 -86 -44 -117c-23 -18 -56 -27 -90 -27c-35 0 -58 6 -66 9v88c15 -6 32 -9 47 -9c16 0 35 4 46 22c9 15 9 38 9 60v223c-40 -8 -72 -9 -86 -9c-33 0 -77 4 -111 31c-39 31 -41 73 -41 101v135h98v-115c0 -25 5 -46 25 -58c15 -9 39 -10 49 -10
c26 0 47 4 66 11v172z" />
    <glyph glyph-name="uniF4CC" unicode="&#xf4cc;" horiz-adv-x="570" 
d="M6 667h124l172 -356l156 356h106l-301 -667h-106l86 189zM272 727l-48 40l138 139l86 -60z" />
    <glyph glyph-name="uniF4CD" unicode="&#xf4cd;" horiz-adv-x="482" 
d="M31 -229l155 295l-180 355h118l120 -246l122 246h110l-335 -650h-110zM316 675l90 -46l-156 -144l-54 34z" />
    <glyph glyph-name="dollar.fitted" unicode="&#xf5f5;" horiz-adv-x="455" 
d="M422 567l-82 -48c-6 15 -15 29 -30 42c-20 17 -44 24 -72 24c-36 0 -60 -13 -74 -27c-16 -16 -20 -31 -20 -51c0 -23 7 -40 26 -56c14 -12 45 -27 63 -34l50 -20c37 -15 80 -35 111 -70c34 -38 46 -82 46 -126c0 -55 -15 -106 -58 -152c-33 -35 -69 -52 -110 -58v-101
h-74v98c-48 4 -91 22 -130 66c-36 40 -52 84 -56 130l101 22c0 -33 12 -64 28 -85c23 -29 52 -40 87 -40c32 0 56 8 79 32c24 24 31 49 31 80c0 29 -8 51 -29 73c-22 23 -42 30 -67 41l-64 27c-30 13 -71 38 -94 61c-31 32 -42 66 -42 102c0 54 20 99 51 129
c23 22 58 43 105 50v89h74v-88c25 -2 56 -10 87 -33c26 -20 49 -48 63 -77z" />
    <glyph glyph-name="Euro.fitted" unicode="&#xf5f6;" horiz-adv-x="598" 
d="M568 641l-43 -89c-32 22 -69 33 -118 33c-104 0 -184 -50 -214 -139h291l-30 -70h-275c-3 -23 -4 -48 -1 -74h247l-30 -70h-207c23 -95 109 -151 210 -151c47 0 105 14 160 57v-109c-60 -31 -121 -42 -163 -42c-83 0 -169 24 -229 82c-20 19 -69 73 -82 163h-68l30 70h30
c-3 26 -2 51 1 74h-61l30 70h41c14 55 43 107 82 146c78 77 176 87 241 87s113 -12 158 -38z" />
    <glyph glyph-name="cent.fitted" unicode="&#xf5f7;" horiz-adv-x="377" 
d="M359 527v-109c-28 30 -69 51 -122 51c-45 0 -72 -19 -87 -34c-26 -25 -39 -64 -39 -100c0 -42 15 -78 38 -100c21 -20 55 -35 92 -35c42 0 86 18 118 54v-109c-27 -18 -59 -30 -94 -32v-100h-74v103c-50 8 -92 32 -120 60c-50 50 -60 112 -60 158c0 67 20 121 68 166
c37 35 74 49 112 54v101h74v-99c35 -3 67 -14 94 -29z" />
    <glyph glyph-name="sterling.fitted" unicode="&#xf5f8;" horiz-adv-x="560" 
d="M512 444h-98v4c0 37 -10 80 -35 105c-13 13 -38 31 -80 31c-38 0 -66 -12 -86 -31c-23 -23 -33 -53 -33 -81c0 -26 11 -66 51 -142h130v-72h-101c2 -6 12 -35 12 -65c0 -20 -4 -43 -14 -65l53 -19c21 -7 51 -20 76 -20c40 0 61 39 69 63l82 -48c-12 -25 -31 -55 -51 -75
c-29 -29 -60 -38 -97 -38c-46 0 -86 16 -112 25c-46 17 -76 28 -101 28c-23 0 -53 -13 -68 -59l-87 44c15 33 41 67 70 87c24 16 46 21 63 22c10 20 15 40 15 62s-3 39 -15 58h-114v72h78c-31 65 -41 108 -41 141c0 56 20 107 57 144c30 29 83 63 165 63
c70 0 118 -23 151 -56c54 -54 61 -126 61 -173v-5z" />
    <glyph glyph-name="yen.fitted" unicode="&#xf5f9;" horiz-adv-x="542" 
d="M510 377h-143l-41 -74h184v-70h-192v-233h-94v233h-192v70h184l-41 74h-143v70h104l-121 220h110l146 -267l146 267h110l-121 -220h104v-70z" />
    <glyph glyph-name="florin.fitted" unicode="&#xf5fa;" 
d="M494 731l-18 -93c-17 8 -33 10 -44 10c-22 0 -38 -7 -51 -21c-14 -16 -22 -42 -28 -74l-24 -132h112l-14 -78h-112l-51 -279c-13 -69 -26 -143 -72 -187c-39 -38 -106 -59 -186 -53l16 93h6c30 0 65 2 90 27c27 26 36 76 44 119l51 280h-85l14 78h85l26 144
c7 39 22 96 58 132c37 37 82 43 115 43c24 0 47 -3 68 -9z" />
    <glyph glyph-name="uni20B4.fitted" unicode="&#xf5fb;" horiz-adv-x="523" 
d="M60 567c29 39 61 63 83 76c45 28 85 36 133 36c33 0 81 -4 120 -36c25 -20 44 -51 44 -90c0 -47 -27 -85 -47 -106h111v-70h-164l-72 -74h236v-70h-297c-29 -25 -41 -59 -41 -83s12 -40 22 -49c20 -17 48 -20 68 -20c34 0 63 7 93 31c26 21 40 44 47 62l85 -40
c-15 -38 -38 -68 -72 -95c-50 -40 -97 -52 -161 -52c-39 0 -85 5 -124 33c-33 23 -60 62 -60 114c0 26 8 64 39 99h-83v70h138l72 74h-210v70h269c18 13 49 43 49 80c0 14 -5 31 -16 41c-16 15 -40 17 -55 17c-30 0 -50 -7 -73 -20c-22 -13 -38 -26 -52 -46z" />
    <glyph glyph-name="uni20B6.fitted" unicode="&#xf5fc;" horiz-adv-x="480" 
d="M240 667c41 0 98 -4 146 -36c57 -37 83 -102 83 -156c0 -51 -20 -104 -53 -137c-29 -29 -83 -61 -175 -61h-46v-74h158v-70h-158v-133h-102v133h-73v70h73v74h-73v88h73v302h147zM195 573v-208h46c45 0 83 13 104 34c12 12 26 34 26 71s-16 60 -28 72
c-29 28 -66 31 -103 31h-45z" />
    <glyph glyph-name="uni20B8.fitted" unicode="&#xf5fd;" horiz-adv-x="432" 
d="M420 441h-153v-441h-102v441h-153v96h408v-96zM420 581h-408v86h408v-86z" />
    <glyph glyph-name="uniF639" unicode="&#xf639;" horiz-adv-x="522" 
d="M261 -11c-60 0 -109 24 -151 72c-70 80 -85 185 -85 272c0 86 15 193 85 273c42 48 92 72 151 72s109 -24 151 -72c70 -80 85 -187 85 -273c0 -87 -15 -192 -85 -272c-42 -48 -91 -72 -151 -72zM261 588c-26 0 -61 -11 -90 -55c-37 -55 -46 -141 -46 -199
c0 -59 9 -144 46 -200c29 -44 64 -55 90 -55s61 11 90 55c37 56 46 141 46 200c0 58 -9 144 -46 199c-29 44 -64 55 -90 55z" />
    <glyph glyph-name="uniF63A" unicode="&#xf63a;" horiz-adv-x="496" 
d="M469 94v-94h-448l231 280c23 28 58 72 80 104c19 28 35 57 35 96c0 56 -37 108 -111 108c-75 0 -114 -58 -118 -121h-98c3 65 30 117 56 146c24 27 72 65 156 65c142 0 215 -97 215 -201c0 -55 -21 -100 -48 -140c-24 -36 -55 -73 -95 -120l-104 -123h249z" />
    <glyph glyph-name="uniF63B" unicode="&#xf63b;" horiz-adv-x="472" 
d="M138 497h-98c3 54 26 100 57 130c46 44 102 51 146 51c51 0 101 -10 144 -55c35 -36 48 -79 48 -127c0 -32 -6 -60 -23 -88c-18 -29 -41 -46 -60 -56c34 -13 55 -36 66 -53c19 -28 28 -65 28 -103c0 -66 -25 -117 -57 -149c-48 -48 -111 -58 -163 -58
c-51 0 -106 10 -149 56c-30 32 -52 85 -57 136h98c5 -30 19 -56 36 -72c14 -13 39 -30 81 -30c31 0 60 12 78 28c19 18 35 49 35 94c0 22 -4 54 -30 79c-29 28 -65 30 -86 30h-20v86h14c43 0 70 14 85 29c16 16 26 41 26 71c0 35 -15 56 -26 67c-23 22 -51 25 -71 25
c-24 0 -52 -4 -74 -27c-23 -24 -28 -60 -28 -64z" />
    <glyph glyph-name="uniF63C" unicode="&#xf63c;" horiz-adv-x="522" 
d="M429 716v-496h72v-94h-72v-126h-98v126h-330zM179 218h152v215z" />
    <glyph glyph-name="uniF63D" unicode="&#xf63d;" 
d="M463 667v-94h-206l-33 -111c10 1 21 2 31 2c56 0 113 -19 154 -59c32 -31 65 -84 65 -171c0 -73 -23 -132 -68 -177c-53 -52 -117 -68 -185 -68c-39 0 -85 5 -128 30c-10 6 -48 29 -79 77l77 64c2 -5 20 -38 51 -58c22 -15 53 -23 87 -23c54 0 85 21 102 37
c20 20 43 56 43 113c0 55 -19 88 -40 108c-33 31 -77 37 -109 37c-29 0 -51 -4 -78 -14c-21 -8 -40 -17 -59 -30l99 337h276z" />
    <glyph glyph-name="uniF63E" unicode="&#xf63e;" horiz-adv-x="502" 
d="M313 690l74 -55l-159 -201c15 3 28 4 42 4c78 0 127 -34 154 -62c36 -38 59 -95 59 -156c0 -59 -21 -124 -66 -168c-56 -55 -128 -63 -172 -63c-58 0 -121 12 -172 65c-35 37 -58 86 -58 151c0 49 11 87 32 128c25 50 51 80 81 119zM250 351c-34 0 -72 -14 -96 -37
c-22 -21 -39 -57 -39 -99c0 -34 13 -74 39 -99c21 -20 61 -37 96 -37c31 0 69 12 94 37s39 65 39 99s-14 74 -39 99c-23 23 -60 37 -94 37z" />
    <glyph glyph-name="uniF63F" unicode="&#xf63f;" horiz-adv-x="529" 
d="M27 27l332 546h-328v94h496l-420 -690z" />
    <glyph glyph-name="uniF640" unicode="&#xf640;" horiz-adv-x="470" 
d="M235 303c-29 0 -59 -11 -79 -31s-31 -52 -31 -81c0 -26 10 -56 30 -78c14 -16 39 -34 80 -34s66 18 80 34c20 22 30 52 30 78c0 29 -11 61 -31 81s-50 31 -79 31zM235 588c-31 0 -56 -11 -73 -27c-17 -17 -28 -44 -28 -74c0 -31 12 -55 27 -70c18 -19 48 -30 74 -30
s56 11 74 30c15 15 27 39 27 70c0 30 -11 57 -28 74c-17 16 -42 27 -73 27zM345 347c31 -13 55 -33 70 -54c25 -33 30 -70 30 -100c0 -68 -26 -114 -53 -142c-31 -33 -81 -62 -157 -62s-126 29 -157 62c-27 28 -53 74 -53 142c0 30 5 67 30 100c15 21 39 41 70 54
c-28 12 -47 32 -59 50c-17 27 -24 61 -24 91c0 53 19 103 56 139c21 20 64 51 137 51s116 -31 137 -51c37 -36 56 -86 56 -139c0 -30 -7 -64 -24 -91c-12 -18 -31 -38 -59 -50z" />
    <glyph glyph-name="uniF641" unicode="&#xf641;" horiz-adv-x="501" 
d="M189 -23l-74 55l157 201c-13 -3 -24 -4 -36 -4c-79 0 -129 35 -156 62c-34 34 -61 83 -61 152c0 67 26 126 66 167c42 43 98 68 172 68c91 0 144 -37 172 -66s58 -77 58 -151c0 -48 -11 -86 -32 -127c-25 -50 -51 -80 -81 -119zM252 316c34 0 70 13 96 40
c25 26 39 64 39 99c0 36 -14 71 -39 95s-61 38 -95 38c-37 0 -73 -17 -95 -38c-22 -22 -39 -57 -39 -98c0 -37 14 -74 39 -99c22 -21 57 -37 94 -37z" />
    <glyph glyph-name="uniF6BA" unicode="&#xf6ba;" horiz-adv-x="340" 
d="M50 288v102h240v-102h-240z" />
    <glyph glyph-name="uniF6BB" unicode="&#xf6bb;" horiz-adv-x="620" 
d="M70 294v90h480v-90h-480z" />
    <glyph glyph-name="uniF6BC" unicode="&#xf6bc;" horiz-adv-x="840" 
d="M70 294v90h700v-90h-700z" />
    <glyph glyph-name="uniF6C3" unicode="&#xf6c3;" 
d="M170 -242l72 192l88 -34l-90 -186z" />
    <glyph glyph-name="uniF6C9" unicode="&#xf6c9;" 
d="M234 727l-48 40l138 139l86 -60z" />
    <glyph glyph-name="uniF6CA" unicode="&#xf6ca;" 
d="M250 838l99 82l66 -56l-165 -134l-165 134l66 56z" />
    <glyph glyph-name="uniF6CB" unicode="&#xf6cb;" 
d="M90 795c0 35 27 62 62 62s62 -27 62 -62s-27 -62 -62 -62s-62 27 -62 62zM286 795c0 35 27 62 62 62s62 -27 62 -62s-27 -62 -62 -62s-62 27 -62 62z" />
    <glyph glyph-name="uniF6CE" unicode="&#xf6ce;" 
d="M266 727l-176 119l86 60l138 -139z" />
    <glyph glyph-name="uniF6CF" unicode="&#xf6cf;" 
d="M232 906l78 -52l-156 -127l-44 36zM432 906l78 -52l-156 -127l-44 36z" />
    <glyph glyph-name="uniF6D0" unicode="&#xf6d0;" 
d="M70 733v80h360v-80h-360z" />
    <glyph glyph-name="uniF6D1" unicode="&#xf6d1;" 
d="M85 832l80 36c16 -55 77 -56 85 -56s69 1 85 56l80 -36c-34 -83 -113 -102 -165 -102s-131 19 -165 102z" />
    <glyph glyph-name="uniF6D4" unicode="&#xf6d4;" 
d="M88 603l80 23c17 -58 58 -65 82 -65c43 0 68 20 82 65l80 -23c-23 -83 -105 -118 -162 -118s-139 35 -162 118z" />
    <glyph glyph-name="uniF6DC" unicode="&#xf6dc;" horiz-adv-x="259" 
d="M121 0v573h-116l56 94h162v-667h-102z" />
    <glyph glyph-name="uniF6DE" unicode="&#xf6de;" horiz-adv-x="630" 
d="M52 168v90h525v-90h-525z" />
    <glyph glyph-name="nbspace" horiz-adv-x="233" 
 />
    <glyph glyph-name="hyphenminus" horiz-adv-x="340" 
d="M50 162v102h240v-102h-240z" />
    <glyph glyph-name="dotlessi1" horiz-adv-x="222" 
d="M62 421h98v-421h-98v421z" />
    </font>
</defs>
</svg>
